×

¿Problemas para descargar con Mozilla, EDGE? Deshabilita la opción "Abrir vinculos en una pestaña nueva" tal como lo muestra ésta imagen.

Star Trek En la oscuridad (2013) [IMAX] Full HD1080p Latino – CMHDD

3.454 vistas

Información de Star Trek En la oscuridad (2013) [IMAX] Full HD1080p Latino – CMHDD

Datos de la película

  • Calidad: Full 1080p
  • Audio: Español Latino AC3 5.1 BLURAY - Ingles AC3 5.1 BLURAY
  • Subtitulos: Español Latino SRT- FORZADOS SRT
  • Resolución: 1920X1080
  • Formato: MKV
  • Codec: H.264
  • Encoder: Dracarys
  • Mediainfo: Clic para Mostrar Datos Ver
  • Format                      : Matroska
    Format version              : Version 4
    File size                   : 15.8 GiB
    Duration                    : 2 h 12 min
    Overall bit rate            : 17.2 Mb/s
    Movie name                  : Star Trek En la oscuridad (2013) [IMAX] Full HD1080p Latino - CMHDD
    Encoded date                : UTC 2020-05-12 05:18:49
    Writing application         : mkvmerge v46.0.0 ('No Deeper Escape') 64-bit
    Writing library             : libebml v1.3.10 + libmatroska v1.5.2
    Cover                       : Yes
    Attachments                 : cover_land.jpg / small_cover.jpg / small_cover_land.jpg / cover.jpg

    Video
    ID                          : 1
    Format                      : AVC
    Format/Info                 : Advanced Video Codec
    Format profile              : High@L4.1
    Format settings             : CABAC / 4 Ref Frames
    Format settings, CABAC      : Yes
    Format settings, Reference  : 4 frames
    Codec ID                    : V_MPEG4/ISO/AVC
    Duration                    : 2 h 12 min
    Bit rate                    : 15.0 Mb/s
    Width                       : 1 920 pixels
    Height                      : 1 080 pixels
    Display aspect ratio        : 16:9
    Frame rate mode             : Constant
    Frame rate                  : 23.976 (24000/1001) FPS
    Color space                 : YUV
    Chroma subsampling          : 4:2:0
    Bit depth                   : 8 bits
    Scan type                   : Progressive
    Bits/(Pixel*Frame)          : 0.302
    Stream size                 : 13.8 GiB (87%)
    Writing library             : x264 core 136 r2348+704+51 d1baef6 tMod [8-bit@all X86]
    Encoding settings           : cabac=1 / ref=4 / deblock=1:-3:-3 / analyse=0x3:0x133 / me=umh / subme=11 / psy=1 / fade_compensate=0.00 / psy_rd=1.05:0.15 / mixed_ref=1 / me_range=64 / chroma_me=1 / trellis=2 / 8x8dct=1 / cqm=0 / deadzone=21,11 / fast_pskip=0 / chroma_qp_offset=-3 / threads=12 / lookahead_threads=3 / sliced_threads=0 / nr=0 / decimate=0 / interlaced=0 / bluray_compat=0 / constrained_intra=0 / fgo=0 / bframes=10 / b_pyramid=2 / b_adapt=2 / b_bias=0 / direct=3 / weightb=1 / open_gop=0 / weightp=2 / keyint=250 / keyint_min=23 / scenecut=40 / intra_refresh=0 / rc_lookahead=150 / rc=2pass / mbtree=0 / bitrate=15000 / ratetol=1.0 / qcomp=0.70 / qpmin=0:0:0 / qpmax=69:69:69 / qpstep=4 / cplxblur=20.0 / qblur=0.5 / vbv_maxrate=50000 / vbv_bufsize=50000 / nal_hrd=none / ip_ratio=1.40 / pb_ratio=1.30 / aq=1:0.75 / aq-sensitivity=10.00 / aq-factor=1.00:1.00:1.00 / aq2=0 / aq3=0
    Language                    : English
    Default                     : Yes
    Forced                      : No

    Audio #1
    ID                          : 2
    Format                      : AC-3
    Format/Info                 : Audio Coding 3
    Commercial name             : Dolby Digital
    Codec ID                    : A_AC3
    Duration                    : 2 h 12 min
    Bit rate mode               : Constant
    Bit rate                    : 640 kb/s
    Channel(s)                  : 6 channels
    Channel layout              : L R C LFE Ls Rs
    Sampling rate               : 48.0 kHz
    Frame rate                  : 31.250 FPS (1536 SPF)
    Compression mode            : Lossy
    Stream size                 : 605 MiB (4%)
    Language                    : Spanish
    Service kind                : Complete Main
    Default                     : Yes
    Forced                      : No

    Audio #2
    ID                          : 3
    Format                      : DTS
    Format/Info                 : Digital Theater Systems
    Codec ID                    : A_DTS
    Duration                    : 2 h 12 min
    Bit rate mode               : Constant
    Bit rate                    : 1 510 kb/s
    Channel(s)                  : 6 channels
    Channel layout              : C L R Ls Rs LFE
    Sampling rate               : 48.0 kHz
    Frame rate                  : 93.750 FPS (512 SPF)
    Bit depth                   : 24 bits
    Compression mode            : Lossy
    Stream size                 : 1.39 GiB (9%)
    Language                    : English
    Default                     : No
    Forced                      : No

    Text #1
    ID                          : 4
    Format                      : UTF-8
    Codec ID                    : S_TEXT/UTF8
    Codec ID/Info               : UTF-8 Plain Text
    Duration                    : 1 h 5 min
    Bit rate                    : 0 b/s
    Count of elements           : 15
    Stream size                 : 424 Bytes (0%)
    Title                       : SRT-Forzados
    Language                    : Spanish
    Default                     : Yes
    Forced                      : No

    Text #2
    ID                          : 5
    Format                      : UTF-8
    Codec ID                    : S_TEXT/UTF8
    Codec ID/Info               : UTF-8 Plain Text
    Duration                    : 2 h 2 min
    Bit rate                    : 56 b/s
    Count of elements           : 1394
    Stream size                 : 50.6 KiB (0%)
    Title                       : SRT-Completos
    Language                    : Spanish
    Default                     : No
    Forced                      : No

    Text #3
    ID                          : 6
    Format                      : PGS
    Muxing mode                 : zlib
    Codec ID                    : S_HDMV/PGS
    Codec ID/Info               : Picture based subtitle format used on BDs/HD-DVDs
    Duration                    : 2 h 2 min
    Bit rate                    : 34.5 kb/s
    Count of elements           : 2788
    Stream size                 : 30.2 MiB (0%)
    Title                       : PGS-Completos
    Language                    : Spanish
    Default                     : No
    Forced                      : No

    Menu
    00:00:00.000                : en:00:00:00.000
    00:10:20.370                : en:00:10:20.370
    00:19:21.493                : en:00:19:21.493
    00:30:03.969                : en:00:30:03.969
    00:40:09.115                : en:00:40:09.115
    00:46:05.262                : en:00:46:05.262
    00:56:38.228                : en:00:56:38.228
    01:06:35.783                : en:01:06:35.783
    01:12:55.662                : en:01:12:55.662
    01:22:45.752                : en:01:22:45.752
    01:30:54.740                : en:01:30:54.740
    01:38:36.368                : en:01:38:36.368
    01:47:09.547                : en:01:47:09.547
    01:54:17.141                : en:01:54:17.141
    01:59:20.653                : en:01:59:20.653
    02:03:18.307                : en:02:03:18.307

  • Peso: 15.8 GiB

Sinopsis

Cuando a la tripulación de la nave Enterprise le ordenan que regrese a casa, en la Tierra se enfrentan a una terrorífica fuerza que, aparentemente desde dentro, ha perpetrado un ataque a la cúpula de la Federación y todo lo que ésta representa, sumiendo a la flota en una profunda crisis. Para intentar solucionar el problema, y con un asunto personal que resolver, el capitán Kirk encabeza una incursión a un planeta en guerra para capturar a un hombre que es un arma de destrucción masiva. A medida que nuestros héroes se van sumergiendo en una épica partida de ajedrez a vida o muerte, la lealtad se verá puesta a prueba, las amistades se romperán, y habrá que hacer ciertos sacrificios por la única familia que le queda a Kirk: su tripulación.

Ficha técnica

Video trailer de la película

Enlaces de descarga

Rip de Bluray

Descargar Star Trek En la oscuridad (2013) [IMAX] Full HD1080p Latino – CMHDD




Aportes de DPeliculasHDmega la pass es:dpeliculashdmega.org Aportes de CinemaniaHD la pass es:cinemaniahdd.com

Películas relacionadas

  • Jaula Mental (2022) PLACEBO Full HD 1080p Latino

    Jaula Mental (2022) PLACEBO Full HD 1080p Latino

    2022
    Jaula Mental (2022) PLACEBO Full HD 1080p Latino

    1h 47m 2022

    Descargar Jaula Mental (2022) PLACEBO Full HD 1080p Latino. Cuando un asesino que imita otros crímenes...

    Director: Mauro Borrelli

    Género: Crimen

    Actores: Victoria Fox

  • Transfusion (2023) PLACEBO Full HD 1080p Latino

    Transfusion (2023) PLACEBO Full HD 1080p Latino

    2023
    Transfusion (2023) PLACEBO Full HD 1080p Latino

    1h 45m 2023

    Descargar Transfusion (2023) PLACEBO Full HD 1080p Latino. Un antiguo agente de las Fuerzas Especiales...

    Director: Matt Nable

    Género: Crimen

    Actores: Trystan Go

  • Gladiador (2000) EXTENDED CUT 1080p Latino

    Gladiador (2000) EXTENDED CUT 1080p Latino

    2000
    Gladiador (2000) EXTENDED CUT 1080p Latino

    2h 35m 2000

    Gladiador (2000) EXTENDED CUT 1080p Latino. Máximo, General de las Legiones Romanas, es querido por...

    Director: Ridley Scott

    Género: Acción

    Actores: Tony Curran

  • Gladiador (2000) EXTENDED CUT Full HD 1080p Latino

    Gladiador (2000) EXTENDED CUT Full HD 1080p Latino

    2000
    Gladiador (2000) EXTENDED CUT Full HD 1080p Latino

    2h 35m 2000

    Descargar Gladiador (2000) [Extended Cut] Full HD 1080p Latino. Máximo, General de las Legiones Romanas,...

    Director: Ridley Scott

    Género: Acción

    Actores: Tony Curran

descargar Star Trek En la oscuridad (2013) [IMAX] Full HD1080p Latino – CMHDD Full 1080p 1080p gratis, Star Trek En la oscuridad (2013) [IMAX] Full HD1080p Latino – CMHDD Full 1080p mega 1 link, Star Trek En la oscuridad (2013) [IMAX] Full HD1080p Latino – CMHDD Full 1080p pelicula completa, descargar Star Trek En la oscuridad (2013) [IMAX] Full HD1080p Latino – CMHDD Full 1080p gratis en mega.

Star Trek En la oscuridad (2013) [IMAX] Full HD1080p Latino – CMHDD pelicula full hd, Star Trek En la oscuridad (2013) [IMAX] Full HD1080p Latino – CMHDD mega latino, Star Trek En la oscuridad (2013) [IMAX] Full HD1080p Latino – CMHDD 4k latino, Star Trek En la oscuridad (2013) [IMAX] Full HD1080p Latino – CMHDD pelicula completa, Star Trek En la oscuridad (2013) [IMAX] Full HD1080p Latino – CMHDD descargar gratis, descargar Star Trek En la oscuridad (2013) [IMAX] Full HD1080p Latino – CMHDD pelicula latino, Star Trek En la oscuridad (2013) [IMAX] Full HD1080p Latino – CMHDD 1 link mega, Star Trek En la oscuridad (2013) [IMAX] Full HD1080p Latino – CMHDD 1 link google drive, Star Trek En la oscuridad (2013) [IMAX] Full HD1080p Latino – CMHDD hd 1080p latino.
Comentarios 4
  • CheloVasco - 16 mayo, 2020

    Este archivo pesa 15.8 GB, en la descripcion aca dice 8.11 Gb, hay que corregir… todo lo demas ok. un saludo

    • Dracarys - 19 mayo, 2020

      arreglado

  • Usuario Agradecido - 21 diciembre, 2017

    ESTIMADOS: Muchas gracias por subir la saga Star Trek en tan buena definición! Tal vez puedan subir las útimas de Star Wars (desde Episodio VII) con la misma calidad. Gracias nuevamente!! Los recomiendo siempre!! Aprovecho para desearles muy FELICES FIESTAS!!!!

    • Dpelis2 - 21 diciembre, 2017

      Muchas Gracias estimado, y claro que si se vienen las de Star Wars. Felices fiestas para ti igual Saludos