×

¿Problemas para descargar con Mozilla, EDGE? Deshabilita la opción "Abrir vinculos en una pestaña nueva" tal como lo muestra ésta imagen.

Star Trek, El Futuro Comienza (2009) REMUX 1080p Latino – CMHDD

727 vistas

Información de Star Trek, El Futuro Comienza (2009) REMUX 1080p Latino – CMHDD

Datos de la película

  • Calidad: Full 1080p
  • Audio: Se especifica abajo de la Sinopsis
  • Subtitulos: Español Latino SRT- FORZADOS SRT
  • Resolución: 1920x1080p
  • Formato: MKV
  • Codec: H.264
  • Encoder: Dracarys
  • Mediainfo: Clic para Mostrar Datos Ver
  • Format                      : Matroska
    Format version              : Version 4
    File size                   : 32.6 GiB
    Duration                    : 2 h 6 min
    Overall bit rate mode       : Variable
    Overall bit rate            : 36.8 Mb/s
    Movie name                  : Star Trek, El Futuro Comienza (2009) REMUX 1080p Latino - CMHDD
    Encoded date                : UTC 2020-05-12 04:53:14
    Writing application         : mkvmerge v46.0.0 ('No Deeper Escape') 64-bit
    Writing library             : libebml v1.3.10 + libmatroska v1.5.2

    Video
    ID                          : 1
    Format                      : AVC
    Format/Info                 : Advanced Video Codec
    Format profile              : High@L4.1
    Format settings             : CABAC / 4 Ref Frames
    Format settings, CABAC      : Yes
    Format settings, Reference  : 4 frames
    Codec ID                    : V_MPEG4/ISO/AVC
    Duration                    : 2 h 6 min
    Bit rate mode               : Variable
    Bit rate                    : 32.4 Mb/s
    Maximum bit rate            : 34.5 Mb/s
    Width                       : 1 920 pixels
    Height                      : 1 080 pixels
    Display aspect ratio        : 16:9
    Frame rate mode             : Constant
    Frame rate                  : 23.976 (24000/1001) FPS
    Color space                 : YUV
    Chroma subsampling          : 4:2:0
    Bit depth                   : 8 bits
    Scan type                   : Progressive
    Bits/(Pixel*Frame)          : 0.653
    Stream size                 : 28.7 GiB (88%)
    Language                    : English
    Default                     : Yes
    Forced                      : No
    Color range                 : Limited
    Color primaries             : BT.709
    Transfer characteristics    : BT.709
    Matrix coefficients         : BT.709

    Audio #1
    ID                          : 2
    Format                      : AC-3
    Format/Info                 : Audio Coding 3
    Commercial name             : Dolby Digital
    Codec ID                    : A_AC3
    Duration                    : 2 h 6 min
    Bit rate mode               : Constant
    Bit rate                    : 640 kb/s
    Channel(s)                  : 6 channels
    Channel layout              : L R C LFE Ls Rs
    Sampling rate               : 48.0 kHz
    Frame rate                  : 31.250 FPS (1536 SPF)
    Compression mode            : Lossy
    Stream size                 : 581 MiB (2%)
    Language                    : Spanish
    Service kind                : Complete Main
    Default                     : Yes
    Forced                      : No

    Audio #2
    ID                          : 3
    Format                      : MLP FBA
    Format/Info                 : Meridian Lossless Packing FBA
    Commercial name             : Dolby TrueHD
    Codec ID                    : A_TRUEHD
    Duration                    : 2 h 6 min
    Bit rate mode               : Variable
    Bit rate                    : 3 603 kb/s
    Maximum bit rate            : 5 376 kb/s
    Channel(s)                  : 6 channels
    Channel layout              : L R C LFE Ls Rs
    Sampling rate               : 48.0 kHz
    Frame rate                  : 1 200.000 FPS (40 SPF)
    Compression mode            : Lossless
    Stream size                 : 3.19 GiB (10%)
    Language                    : English
    Default                     : No
    Forced                      : No

    Text #1
    ID                          : 4
    Format                      : UTF-8
    Codec ID                    : S_TEXT/UTF8
    Codec ID/Info               : UTF-8 Plain Text
    Duration                    : 13 min 51 s
    Bit rate                    : 0 b/s
    Count of elements           : 2
    Stream size                 : 25.0 Bytes (0%)
    Title                       : SRT-Forzados
    Language                    : Spanish
    Default                     : Yes
    Forced                      : No

    Text #2
    ID                          : 5
    Format                      : UTF-8
    Codec ID                    : S_TEXT/UTF8
    Codec ID/Info               : UTF-8 Plain Text
    Duration                    : 1 h 57 min
    Bit rate                    : 54 b/s
    Count of elements           : 1305
    Stream size                 : 46.6 KiB (0%)
    Title                       : SRT-Completos
    Language                    : Spanish
    Default                     : No
    Forced                      : No

    Text #3
    ID                          : 6
    Format                      : PGS
    Muxing mode                 : zlib
    Codec ID                    : S_HDMV/PGS
    Codec ID/Info               : Picture based subtitle format used on BDs/HD-DVDs
    Duration                    : 13 min 51 s
    Bit rate                    : 223 b/s
    Count of elements           : 4
    Stream size                 : 22.7 KiB (0%)
    Title                       : PGS-Forzados
    Language                    : Spanish
    Default                     : No
    Forced                      : No

    Text #4
    ID                          : 7
    Format                      : PGS
    Muxing mode                 : zlib
    Codec ID                    : S_HDMV/PGS
    Codec ID/Info               : Picture based subtitle format used on BDs/HD-DVDs
    Duration                    : 1 h 57 min
    Bit rate                    : 33.0 kb/s
    Count of elements           : 2610
    Stream size                 : 27.7 MiB (0%)
    Title                       : PGS-Completos
    Default                     : No
    Forced                      : No

  • Peso: 32.6 GiB

Sinopsis

Nueva entrega de la mítica saga de Star Trek, dirigida por el creador de la serie «Perdidos» (Lost), donde se cuenta cómo se conocieron el capitan Kirk y Spock. Todo está preparado para el viaje inaugural de la nave más moderna que jamás se haya creado: la USS Enterprise. Su joven tripulación tiene una importante misión: encontrar una manera de detener al malvado Nero (Eric Bana), que movido por la venganza amenaza a toda la humanidad. Pero el destino de la galaxia está en manos de dos jóvenes rivales que nacieron en mundos diferentes. Uno de ellos, Tiberio James Kirk (Chris Pine), joven de una granja de Iowa que busca emociones, es un líder nato a la búsqueda de una causa. El otro, Spock (Zachary Quinto), que creció en el planeta Vulcano, es un paria debido a su parte medio humana, lo que lo hace susceptible a la inestabilidad de las emociones de los Vulcanos.

 

Latino: AC3 5.1  –  Ingles: TrueHD 7.1

Ficha técnica

Video trailer de la película

Enlaces de descarga

Rip de Bluray

Descargar Star Trek, El Futuro Comienza (2009) REMUX 1080p Latino – CMHDD




Aportes de DPeliculasHDmega la pass es:dpeliculashdmega.org Aportes de CinemaniaHD la pass es:cinemaniahdd.com
Guardado en : Acción , Aventura , Ciencia ficción , Remux

Películas relacionadas

  • Paradise Highway (2022) REMUX 1080p Latino

    Paradise Highway (2022) REMUX 1080p Latino

    2022
    Paradise Highway (2022) REMUX 1080p Latino

    1h 55m 2022

    Descargar Paradise Highway (2022) REMUX 1080p Latino. Un camionero se ha visto obligado a pasar de contrabando...

    Director: Anna Gutto

    Género: Crimen

    Actores: Xavier Scott Evans

  • Shotgun Wedding (2022) AMZN WEB-DL 1080p Latino

    Shotgun Wedding (2022) AMZN WEB-DL 1080p Latino

    2022
    Shotgun Wedding (2022) AMZN WEB-DL 1080p Latino

    1h 41m 2022

    Darcy y Tom reúnen a sus familias para la boda de destino definitiva, pero cuando toman como rehenes...

    Director: Jason Moore

    Género: Acción

    Actores: Steve Coulter

  • M3GAN (2023) AMZN WEB-DL 4K UHD HDR Latino

    M3GAN (2023) AMZN WEB-DL 4K UHD HDR Latino

    2022
    M3GAN (2023) AMZN WEB-DL 4K UHD HDR Latino

    1h 42m 2022

    Descargar M3GAN (2023) AMZN WEB-DL 4K UHD HDR Latino. Cuando Gemma se convierte en la cuidadora de su...

    Director: Stephen W. Moore

    Género: 4K HDR

    Actores: Violet McGraw

  • M3GAN (2022) MA WEB-DL 1080p Latino

    M3GAN (2022) MA WEB-DL 1080p Latino

    2022
    M3GAN (2022) MA WEB-DL 1080p Latino

    1h 42m 2022

    Descargar M3GAN (2022) MA WEB-DL 1080p Latino. Cuando Gemma se convierte en la cuidadora de su sobrina...

    Director: Stephen W. Moore

    Género: Ciencia ficción

    Actores: Violet McGraw

descargar Star Trek, El Futuro Comienza (2009) REMUX 1080p Latino – CMHDD Full 1080p 1080p gratis, Star Trek, El Futuro Comienza (2009) REMUX 1080p Latino – CMHDD Full 1080p mega 1 link, Star Trek, El Futuro Comienza (2009) REMUX 1080p Latino – CMHDD Full 1080p pelicula completa, descargar Star Trek, El Futuro Comienza (2009) REMUX 1080p Latino – CMHDD Full 1080p gratis en mega.

Star Trek, El Futuro Comienza (2009) REMUX 1080p Latino – CMHDD pelicula full hd, Star Trek, El Futuro Comienza (2009) REMUX 1080p Latino – CMHDD mega latino, Star Trek, El Futuro Comienza (2009) REMUX 1080p Latino – CMHDD 4k latino, Star Trek, El Futuro Comienza (2009) REMUX 1080p Latino – CMHDD pelicula completa, Star Trek, El Futuro Comienza (2009) REMUX 1080p Latino – CMHDD descargar gratis, descargar Star Trek, El Futuro Comienza (2009) REMUX 1080p Latino – CMHDD pelicula latino, Star Trek, El Futuro Comienza (2009) REMUX 1080p Latino – CMHDD 1 link mega, Star Trek, El Futuro Comienza (2009) REMUX 1080p Latino – CMHDD 1 link google drive, Star Trek, El Futuro Comienza (2009) REMUX 1080p Latino – CMHDD hd 1080p latino.
Comentarios 0