Star Trek: Discovery (2019) Temporada 2 NF 1080p Latino

2.039 vistas
1 estrella2 estrellas3 estrellas4 estrellas5 estrellas (5 votos, promedio: 4,20 de 5)
Cargando…

Información de Star Trek: Discovery (2019) Temporada 2 NF 1080p Latino

Datos de la película

  • Calidad: WEBDL
  • Audio: Español Latino AC3 5.1 Netflix - Ingles AC3 5.1 Netflix
  • Subtitulos: Español Latino SRT - Ingles SRT
  • Resolución: 1920x1080
  • Formato: MKV
  • Codec: H.264
  • Encoder: cinemaniahd
  • Mediainfo: Clic para Mostrar Datos Ver
  • GeStar Trek Discovery S02E01 (2019) NF 1080p Latino.mkv
    Format                      : Matroska
    Format version              : Version 4
    File size                   : 2.38 GiB
    Duration                    : 1 h 0 min
    Overall bit rate mode       : Variable
    Overall bit rate            : 5 598 kb/s
    Movie name                  : CinemaniaHDD.net
    Encoded date                : UTC 2019-01-18 10:01:32
    Writing application         : mkvmerge v30.1.0 ('Forever And More') 64-bit
    Writing library             : libebml v1.3.6 + libmatroska v1.4.9

    Video
    ID                          : 1
    Format                      : AVC
    Format/Info                 : Advanced Video Codec
    Format profile              : [email protected]
    Format settings             : CABAC / 3 Ref Frames
    Format settings, CABAC      : Yes
    Format settings, ReFrames   : 3 frames
    Codec ID                    : V_MPEG4/ISO/AVC
    Duration                    : 1 h 0 min
    Bit rate mode               : Variable
    Bit rate                    : 4 870 kb/s
    Maximum bit rate            : 7 305 kb/s
    Width                       : 1 920 pixels
    Height                      : 1 080 pixels
    Display aspect ratio        : 16:9
    Frame rate mode             : Constant
    Frame rate                  : 23.976 (24000/1001) FPS
    Color space                 : YUV
    Chroma subsampling          : 4:2:0
    Bit depth                   : 8 bits
    Scan type                   : Progressive
    Bits/(Pixel*Frame)          : 0.098
    Stream size                 : 2.05 GiB (86%)
    Title                       : cinemaniahdd
    Writing library             : x264 core 148 r2715 7e75228
    Encoding settings           : cabac=1 / ref=3 / deblock=1:0:0 / analyse=0x1:0x111 / me=umh / subme=10 / psy=1 / psy_rd=1.00:0.00 / mixed_ref=1 / me_range=24 / chroma_me=1 / trellis=2 / 8x8dct=0 / cqm=0 / deadzone=21,11 / fast_pskip=1 / chroma_qp_offset=-2 / threads=8 / lookahead_threads=1 / sliced_threads=0 / nr=0 / decimate=1 / interlaced=0 / bluray_compat=0 / stitchable=1 / constrained_intra=0 / bframes=2 / b_pyramid=0 / b_adapt=2 / b_bias=0 / direct=3 / weightb=1 / open_gop=0 / weightp=2 / keyint=48 / keyint_min=25 / scenecut=0 / intra_refresh=0 / rc_lookahead=48 / rc=2pass / mbtree=1 / bitrate=4870 / ratetol=1.0 / qcomp=0.50 / qpmin=6 / qpmax=51 / qpstep=4 / cplxblur=20.0 / qblur=0.5 / vbv_maxrate=7305 / vbv_bufsize=9740 / nal_hrd=vbr / filler=0 / ip_ratio=1.40 / aq=1:1.00
    Default                     : Yes
    Forced                      : No

    Audio #1
    ID                          : 2
    Format                      : AC-3
    Format/Info                 : Audio Coding 3
    Commercial name             : Dolby Digital
    Codec ID                    : A_AC3
    Duration                    : 1 h 0 min
    Bit rate mode               : Constant
    Bit rate                    : 384 kb/s
    Channel(s)                  : 6 channels
    Channel layout              : L R C LFE Ls Rs
    Sampling rate               : 48.0 kHz
    Frame rate                  : 31.250 FPS (1536 SPF)
    Bit depth                   : 16 bits
    Compression mode            : Lossy
    Stream size                 : 167 MiB (7%)
    Title                       : Español latino [cinemaniahdd]
    Language                    : Spanish
    Service kind                : Complete Main
    Default                     : Yes
    Forced                      : No

    Audio #2
    ID                          : 3
    Format                      : AC-3
    Format/Info                 : Audio Coding 3
    Commercial name             : Dolby Digital
    Codec ID                    : A_AC3
    Duration                    : 1 h 0 min
    Bit rate mode               : Constant
    Bit rate                    : 384 kb/s
    Channel(s)                  : 6 channels
    Channel layout              : L R C LFE Ls Rs
    Sampling rate               : 48.0 kHz
    Frame rate                  : 31.250 FPS (1536 SPF)
    Bit depth                   : 16 bits
    Compression mode            : Lossy
    Stream size                 : 167 MiB (7%)
    Title                       : Inglés [cinemaniahdd]
    Language                    : English
    Service kind                : Complete Main
    Default                     : No
    Forced                      : No

    Text #1
    ID                          : 4
    Format                      : UTF-8
    Codec ID                    : S_TEXT/UTF8
    Codec ID/Info               : UTF-8 Plain Text
    Duration                    : 58 min 58 s
    Bit rate                    : 71 b/s
    Count of elements           : 834
    Stream size                 : 30.9 KiB (0%)
    Title                       : English
    Language                    : English
    Default                     : No
    Forced                      : No

    Text #2
    ID                          : 5
    Format                      : UTF-8
    Codec ID                    : S_TEXT/UTF8
    Codec ID/Info               : UTF-8 Plain Text
    Duration                    : 1 h 0 min
    Bit rate                    : 60 b/s
    Count of elements           : 790
    Stream size                 : 26.9 KiB (0%)
    Title                       : Español latino [cinemaniahdd]
    Language                    : Spanish
    Default                     : No
    Forced                      : No

  • Peso: 2.40 GB . 1 Los Viernes (5 Capitulos Disponible

Sinopsis

La segunda temporada de la serie de televisión estadounidense Star Trek: Discovery se desarrolla aproximadamente una década antes de la serie original de Star Trek, y muestra a la tripulación de la USS Discovery. La temporada será producida por CBS Television Studios en asociación con Secret Hideout, Roddenberry Entertainment y Living Dead Guy Productions, con Alex Kurtzman como productor ejecutivo.

Sonequa Martin-Green interpreta a Michael Burnham, junto con Doug Jones, Shazad Latif, Anthony Rapp y Mary Wiseman a ellos se unen Wilson Cruz, promocionando desde un papel secundario, y Anson Mount como el capitán original de Star Trek Christopher Pike. El productor ejecutivo original Bryan Fuller tenía la intención de que Discovery fuera una serie antológica que contaba historias diferentes cada temporada. La CBS no estuvo de acuerdo, pero finalmente se utilizó un enfoque híbrido mostrando a los mismos personajes pero contando historias diferentes cada temporada. La segunda temporada se encargó oficialmente en octubre de 2017, y el rodaje comenzó en abril de 2018. Gretchen J. Berg y Aaron Harberts, los productores de la primera temporada, regresaron para la segunda temporada pero fueron despedidos durante la producción, el cocreador Alex Kurtzman los reemplazó.

La temporada se estrenará en enero de 2019 y constará de 13 episodios

Ficha técnica

Video trailer de la película

Enlaces de descarga

Rip de Bluray

Descargar Star Trek: Discovery (2019) Temporada 2 NF 1080p Latino




Aportes de DPeliculasHDmega la pass es:dpeliculashdmega.org Aportes de CinemaniaHD la pass es:cinemaniahdd.com
Guardado en : Sci-Fi & Fantasy , Series

Películas relacionadas

Comentarios 0