×

¿Problemas para descargar con Mozilla, EDGE? Deshabilita la opción "Abrir vinculos en una pestaña nueva" tal como lo muestra ésta imagen.

Standing Up, Falling Down (2019) WEB-DL 1080p Latino

227 vistas

Información de Standing Up, Falling Down (2019) WEB-DL 1080p Latino

Datos de la película

  • Calidad: WEBDL
  • Audio: Español Latino AC3 2.0 WEB-DL - Ingles AC3 5.1 WEB-DL
  • Subtitulos: No
  • Resolución: 1920x960
  • Formato: MKV
  • Codec: H.264
  • Encoder: cinemaniahdd
  • Mediainfo: Clic para Mostrar Datos Ver
  • Standing Up Falling Down (2019) WEB-DL 1080p Latino [CNMNHDD].mkv
    Format                      : Matroska
    Format version              : Version 4
    File size                   : 4.22 GiB
    Duration                    : 1 h 30 min
    Overall bit rate            : 6 642 kb/s
    Movie name                  : Standing Up Falling Down (2019) - CinemaniaHDD.Net
    Encoded date                : UTC 2020-11-03 19:21:18
    Writing application         : mkvmerge v51.0.0 ('I Wish') 64-bit
    Writing library             : libebml v1.4.0 + libmatroska v1.6.2

    Video
    ID                          : 1
    Format                      : AVC
    Format/Info                 : Advanced Video Codec
    Format profile              : Baseline@L4
    Format settings             : 1 Ref Frames
    Format settings, CABAC      : No
    Format settings, Reference  : 1 frame
    Codec ID                    : V_MPEG4/ISO/AVC
    Duration                    : 1 h 30 min
    Bit rate                    : 6 000 kb/s
    Width                       : 1 920 pixels
    Height                      : 960 pixels
    Display aspect ratio        : 2.000
    Frame rate mode             : Constant
    Frame rate                  : 23.976 (23976/1000) FPS
    Color space                 : YUV
    Chroma subsampling          : 4:2:0
    Bit depth                   : 8 bits
    Scan type                   : Progressive
    Bits/(Pixel*Frame)          : 0.136
    Stream size                 : 3.81 GiB (90%)
    Title                       : CinemaniaHDD.Net
    Default                     : Yes
    Forced                      : No

    Audio #1
    ID                          : 2
    Format                      : AC-3
    Format/Info                 : Audio Coding 3
    Commercial name             : Dolby Digital
    Codec ID                    : A_AC3
    Duration                    : 1 h 30 min
    Bit rate mode               : Constant
    Bit rate                    : 256 kb/s
    Channel(s)                  : 2 channels
    Channel layout              : L R
    Sampling rate               : 48.0 kHz
    Frame rate                  : 31.250 FPS (1536 SPF)
    Compression mode            : Lossy
    Stream size                 : 166 MiB (4%)
    Title                       : Español latino [CinemaniaHDD]
    Language                    : Spanish
    Service kind                : Complete Main
    Default                     : Yes
    Forced                      : No

    Audio #2
    ID                          : 3
    Format                      : AC-3
    Format/Info                 : Audio Coding 3
    Commercial name             : Dolby Digital
    Codec ID                    : A_AC3
    Duration                    : 1 h 30 min
    Bit rate mode               : Constant
    Bit rate                    : 384 kb/s
    Channel(s)                  : 6 channels
    Channel layout              : L R C LFE Ls Rs
    Sampling rate               : 48.0 kHz
    Frame rate                  : 31.250 FPS (1536 SPF)
    Compression mode            : Lossy
    Stream size                 : 250 MiB (6%)
    Title                       : Inglés [CinemaniaHDD]
    Language                    : English
    Service kind                : Complete Main
    Default                     : No
    Forced                      : No

     

  • Peso: 4.22 GiB

Sinopsis

Se enciende una amistad poco probable entre un comediante de L.A. en apuros, obligado a regresar a su casa en el este de Long Island con el rabo entre las piernas, y un dermatólogo alcohólico trágicamente imperfecto, pero encantador y carismático. Al descubrir ser almas gemelas, cada uno ayuda al otro a encontrar la curación, además de la confianza para enfrentar los ‘fracasos’ en sus vidas.

Ficha técnica

  • Titulo original: Standing Up, Falling Down
  • Fecha de lanzamiento: 21-02-2020 (United States of America)
  • Director: Matt Ratner
  • Género: Comedia, Drama

Video trailer de la película

Enlaces de descarga

Rip de Bluray

Descargar Standing Up, Falling Down (2019) WEB-DL 1080p Latino




Aportes de DPeliculasHDmega la pass es:dpeliculashdmega.org Aportes de CinemaniaHD la pass es:cinemaniahdd.com
Guardado en : Comedia , Drama

Películas relacionadas

descargar Standing Up, Falling Down (2019) WEB-DL 1080p Latino WEBDL 1080p gratis, Standing Up, Falling Down (2019) WEB-DL 1080p Latino WEBDL mega 1 link, Standing Up, Falling Down (2019) WEB-DL 1080p Latino WEBDL pelicula completa, descargar Standing Up, Falling Down (2019) WEB-DL 1080p Latino WEBDL gratis en mega.

Standing Up, Falling Down (2019) WEB-DL 1080p Latino pelicula full hd, Standing Up, Falling Down (2019) WEB-DL 1080p Latino mega latino, Standing Up, Falling Down (2019) WEB-DL 1080p Latino 4k latino, Standing Up, Falling Down (2019) WEB-DL 1080p Latino pelicula completa, Standing Up, Falling Down (2019) WEB-DL 1080p Latino descargar gratis, descargar Standing Up, Falling Down (2019) WEB-DL 1080p Latino pelicula latino, Standing Up, Falling Down (2019) WEB-DL 1080p Latino 1 link mega, Standing Up, Falling Down (2019) WEB-DL 1080p Latino 1 link google drive, Standing Up, Falling Down (2019) WEB-DL 1080p Latino hd 1080p latino.
Comentarios 0