×

¿Problemas para descargar con Mozilla, EDGE? Deshabilita la opción "Abrir vinculos en una pestaña nueva" tal como lo muestra ésta imagen.

Stalked by My Doctor: Patient’s Revenge (2018) AMZN WEB-DL 1080p Latino

766 vistas

Información de Stalked by My Doctor: Patient’s Revenge (2018) AMZN WEB-DL 1080p Latino

Datos de la película

  • Calidad: WEBDL
  • Audio: Español Latino AC3 2.0 DVD - Ingles AC3 5.1 AMAZON
  • Subtitulos: Español Latino SRT- FORZADOS SRT
  • Resolución: 1920x1080
  • Formato: MKV
  • Codec: H.264
  • Encoder: cinemaniahdd
  • Mediainfo: Clic para Mostrar Datos Ver
  • Stalked by My Doctor, Patient's Revenge (2018) AMZN WEB-DL 1080p Latino.mkv
    Format                      : Matroska
    Format version              : Version 4
    File size                   : 4.43 GiB
    Duration                    : 1 h 26 min
    Overall bit rate            : 7 369 kb/s
    Movie name                  : Stalked by My Doctor, Patient's Revenge (2019) - CinemaniaHDD.Net
    Encoded date                : UTC 2019-11-05 16:14:11
    Writing application         : mkvmerge v38.0.0 ('The Silent Type') 64-bit
    Writing library             : libebml v1.3.9 + libmatroska v1.5.2

    Video
    ID                          : 1
    Format                      : AVC
    Format/Info                 : Advanced Video Codec
    Format profile              : High@L4
    Format settings             : CABAC / 4 Ref Frames
    Format settings, CABAC      : Yes
    Format settings, ReFrames   : 4 frames
    Codec ID                    : V_MPEG4/ISO/AVC
    Duration                    : 1 h 26 min
    Bit rate                    : 6 471 kb/s
    Width                       : 1 920 pixels
    Height                      : 1 080 pixels
    Display aspect ratio        : 16:9
    Frame rate mode             : Constant
    Frame rate                  : 23.976 (24000/1001) FPS
    Color space                 : YUV
    Chroma subsampling          : 4:2:0
    Bit depth                   : 8 bits
    Scan type                   : Progressive
    Bits/(Pixel*Frame)          : 0.130
    Stream size                 : 3.89 GiB (88%)
    Title                       : CinemaniaHDD
    Default                     : Yes
    Forced                      : No
    Color range                 : Limited
    Color primaries             : BT.709
    Transfer characteristics    : BT.709
    Matrix coefficients         : BT.709

    Audio #1
    ID                          : 2
    Format                      : AC-3
    Format/Info                 : Audio Coding 3
    Commercial name             : Dolby Digital
    Codec ID                    : A_AC3
    Duration                    : 1 h 26 min
    Bit rate mode               : Constant
    Bit rate                    : 256 kb/s
    Channel(s)                  : 2 channels
    Channel layout              : L R
    Sampling rate               : 48.0 kHz
    Frame rate                  : 31.250 FPS (1536 SPF)
    Bit depth                   : 16 bits
    Compression mode            : Lossy
    Stream size                 : 158 MiB (3%)
    Title                       : Español latino [CinemaniaHDD]
    Language                    : Spanish
    Service kind                : Complete Main
    Default                     : Yes
    Forced                      : No

    Audio #2
    ID                          : 3
    Format                      : E-AC-3
    Format/Info                 : Enhanced AC-3
    Commercial name             : Dolby Digital Plus
    Codec ID                    : A_EAC3
    Duration                    : 1 h 26 min
    Bit rate mode               : Constant
    Bit rate                    : 640 kb/s
    Channel(s)                  : 6 channels
    Channel layout              : L R C LFE Ls Rs
    Sampling rate               : 48.0 kHz
    Frame rate                  : 31.250 FPS (1536 SPF)
    Compression mode            : Lossy
    Stream size                 : 394 MiB (9%)
    Title                       : Inglés [CinemaniaHDD]
    Language                    : English
    Service kind                : Complete Main
    Default                     : No
    Forced                      : No

    Text #1
    ID                          : 4
    Format                      : UTF-8
    Codec ID                    : S_TEXT/UTF8
    Codec ID/Info               : UTF-8 Plain Text
    Duration                    : 20 min 44 s
    Bit rate                    : 2 b/s
    Count of elements           : 12
    Stream size                 : 331 Bytes (0%)
    Title                       : Forzados [CinemaniaHDD]
    Language                    : Spanish
    Default                     : Yes
    Forced                      : Yes

    Text #2
    ID                          : 5
    Format                      : UTF-8
    Codec ID                    : S_TEXT/UTF8
    Codec ID/Info               : UTF-8 Plain Text
    Duration                    : 1 h 24 min
    Bit rate                    : 64 b/s
    Count of elements           : 1304
    Stream size                 : 39.8 KiB (0%)
    Title                       : Español latino [CinemaniaHDD]
    Language                    : Spanish
    Default                     : No
    Forced                      : No

     

  • Peso: 4.43 GiB

Sinopsis

¡El doctor favorito de todos está de vuelta! El Dr. Albert Beck parece obtener lo que deseaba cuando el jurado lo declara inocente por el secuestro y el intento de asesinato de un paciente , por lo que obtiene un trabajo de maestro en una prestigiosa escuela de medicina de Arizona, donde se enamora de un nuevo estudiante, con esa obsesión creciente que lucha por evitar que tome el control de su vida, pero las cosas no son lo que parecen, cuando una ex paciente suya, Sophie Green decide inscribirse en la escuela de medicina donde está enseñando…

Ficha técnica

  • Titulo original: Stalked by My Doctor: Patient's Revenge
  • Fecha de lanzamiento: 10-06-2018
  • Director: Doug Campbell
  • Género: Suspenso

Video trailer de la película

Enlaces de descarga

Rip de Bluray

Descargar Stalked by My Doctor: Patient’s Revenge (2018) AMZN WEB-DL 1080p Latino




Aportes de DPeliculasHDmega la pass es:dpeliculashdmega.org Aportes de CinemaniaHD la pass es:cinemaniahdd.com
Guardado en : Suspenso

Películas relacionadas

  • Juego de espías (2001) 1080p Latino

    Juego de espías (2001) 1080p Latino

    2001
    Juego de espías (2001) 1080p Latino

    2h 6m 2001

    Descargar Juego de espías (2001) 1080p Latino. Corre el año 1991, y al veterano agente de la CIA Nathan...

    Director: Tony Scott

    Género: Acción

    Actores: Zsolt Zágoni

  • Juego de espías (2001) Full HD 1080p Latino

    Juego de espías (2001) Full HD 1080p Latino

    2001
    Juego de espías (2001) Full HD 1080p Latino

    2h 6m 2001

    Descargar Juego de espías (2001) Full HD 1080p Latino. Corre el año 1991, y al veterano agente de la...

    Director: Tony Scott

    Género: Acción

    Actores: Zsolt Zágoni

  • Juego de espías (2001) REMUX 1080p Latino

    Juego de espías (2001) REMUX 1080p Latino

    2001
    Juego de espías (2001) REMUX 1080p Latino

    1h 55m 2001

    Descargar Juego de espías (2001) REMUX 1080p Latino. El día de su jubilación, el veterano agente de...

    Director: Tony Scott

    Género: Acción

    Actores: Zsolt Zágoni

  • Transfusion (2023) WEB-DL 4K UHD HDR Latino

    Transfusion (2023) WEB-DL 4K UHD HDR Latino

    2023
    Transfusion (2023) WEB-DL 4K UHD HDR Latino

    1h 45m 2023

    Descargar Transfusion (2023) WEB-DL 4K UHD HDR Latino. Un antiguo agente de las Fuerzas Especiales se...

    Director: Matt Nable

    Género: 4K HDR

    Actores: Trystan Go

  • Transfusion (2023) WEB-DL 1080p Latino

    Transfusion (2023) WEB-DL 1080p Latino

    2023
    Transfusion (2023) WEB-DL 1080p Latino

    1h 45m 2023

    Descargar Transfusion (2023) WEB-DL 1080p Latino. Un antiguo agente de las Fuerzas Especiales se ve empujado...

    Director: Matt Nable

    Género: Crimen

    Actores: Trystan Go

descargar Stalked by My Doctor: Patient’s Revenge (2018) AMZN WEB-DL 1080p Latino WEBDL 1080p gratis, Stalked by My Doctor: Patient’s Revenge (2018) AMZN WEB-DL 1080p Latino WEBDL mega 1 link, Stalked by My Doctor: Patient’s Revenge (2018) AMZN WEB-DL 1080p Latino WEBDL pelicula completa, descargar Stalked by My Doctor: Patient’s Revenge (2018) AMZN WEB-DL 1080p Latino WEBDL gratis en mega.

Stalked by My Doctor: Patient’s Revenge (2018) AMZN WEB-DL 1080p Latino pelicula full hd, Stalked by My Doctor: Patient’s Revenge (2018) AMZN WEB-DL 1080p Latino mega latino, Stalked by My Doctor: Patient’s Revenge (2018) AMZN WEB-DL 1080p Latino 4k latino, Stalked by My Doctor: Patient’s Revenge (2018) AMZN WEB-DL 1080p Latino pelicula completa, Stalked by My Doctor: Patient’s Revenge (2018) AMZN WEB-DL 1080p Latino descargar gratis, descargar Stalked by My Doctor: Patient’s Revenge (2018) AMZN WEB-DL 1080p Latino pelicula latino, Stalked by My Doctor: Patient’s Revenge (2018) AMZN WEB-DL 1080p Latino 1 link mega, Stalked by My Doctor: Patient’s Revenge (2018) AMZN WEB-DL 1080p Latino 1 link google drive, Stalked by My Doctor: Patient’s Revenge (2018) AMZN WEB-DL 1080p Latino hd 1080p latino.
Comentarios 0