×

¿Problemas para descargar con Mozilla, EDGE? Deshabilita la opción "Abrir vinculos en una pestaña nueva" tal como lo muestra ésta imagen.

Stalk (2020) Temporada 1 HMAX WEB-DL 1080p SUB

259 vistas

Información de Stalk (2020) Temporada 1 HMAX WEB-DL 1080p SUB

Datos de la película

  • Calidad: WEBDL
  • Audio: Se especifica abajo de la Sinopsis
  • Subtitulos: Español Latino SRT
  • Resolución: 1920x1080p
  • Formato: MKV
  • Codec: H.264
  • Encoder: Melkor & CinemaniaHD
  • Mediainfo: Clic para Mostrar Datos Ver
  • Stalk S01E01 (2020) HMAX WEB-DL 1080p SUB.mkv
    Format                      : Matroska
    Format version              : Version 4
    File size                   : 1.16 GiB
    Duration                    : 19 min 21 s
    Overall bit rate mode       : Variable
    Overall bit rate            : 8 608 kb/s
    Movie name                  : Stalk S01E01 - Wei or Die CinemaniaHDD.Net
    Encoded date                : UTC 2023-04-08 00:32:18
    Writing application         : mkvmerge v58.0.0 ('Supper's Ready') 32-bit
    Writing library             : libebml v1.4.2 + libmatroska v1.6.4
    Attachments                 : CINEMANIAHD.png
    Site                        : CinemaniaHDD.Net
    Uploader                    : Melkor

    Video
    ID                          : 1
    Format                      : AVC
    Format/Info                 : Advanced Video Codec
    Format profile              : High@L4
    Format settings             : CABAC / 4 Ref Frames
    Format settings, CABAC      : Yes
    Format settings, Reference  : 4 frames
    Format settings, GOP        : M=1, N=5
    Codec ID                    : V_MPEG4/ISO/AVC
    Duration                    : 19 min 21 s
    Bit rate mode               : Variable
    Bit rate                    : 8 250 kb/s
    Maximum bit rate            : 12.4 Mb/s
    Width                       : 1 920 pixels
    Height                      : 1 080 pixels
    Display aspect ratio        : 16:9
    Frame rate mode             : Constant
    Frame rate                  : 29.970 (30000/1001) FPS
    Color space                 : YUV
    Chroma subsampling          : 4:2:0
    Bit depth                   : 8 bits
    Scan type                   : Progressive
    Bits/(Pixel*Frame)          : 0.133
    Stream size                 : 1.11 GiB (96%)
    Title                       : WEB HD1080p [CinemaniaHDD]
    Writing library             : x264 core 157 r2965 861cec4
    Encoding settings           : cabac=1 / ref=4 / deblock=1:0:0 / analyse=0x3:0x113 / me=hex / subme=7 / psy=1 / psy_rd=1.00:0.00 / mixed_ref=1 / me_range=16 / chroma_me=1 / trellis=1 / 8x8dct=1 / cqm=0 / deadzone=21,11 / fast_pskip=1 / chroma_qp_offset=-2 / threads=34 / lookahead_threads=5 / sliced_threads=0 / nr=0 / decimate=1 / interlaced=0 / bluray_compat=0 / constrained_intra=0 / bframes=3 / b_pyramid=2 / b_adapt=1 / b_bias=0 / direct=1 / weightb=1 / open_gop=0 / weightp=2 / keyint=120 / keyint_min=120 / scenecut=40 / intra_refresh=0 / rc_lookahead=40 / rc=2pass / mbtree=1 / bitrate=8250 / ratetol=1.0 / qcomp=0.60 / qpmin=0 / qpmax=69 / qpstep=4 / cplxblur=20.0 / qblur=0.5 / vbv_maxrate=12375 / vbv_bufsize=6187 / nal_hrd=vbr / filler=0 / ip_ratio=1.40 / aq=1:1.00
    Default                     : Yes
    Forced                      : Yes
    Color range                 : Limited
    Color primaries             : BT.709
    Transfer characteristics    : BT.709
    Matrix coefficients         : BT.709

    Audio
    ID                          : 2
    Format                      : AC-3
    Format/Info                 : Audio Coding 3
    Commercial name             : Dolby Digital
    Codec ID                    : A_AC3
    Duration                    : 19 min 21 s
    Bit rate mode               : Constant
    Bit rate                    : 384 kb/s
    Channel(s)                  : 2 channels
    Channel layout              : L R
    Sampling rate               : 48.0 kHz
    Frame rate                  : 31.250 FPS (1536 SPF)
    Compression mode            : Lossy
    Stream size                 : 53.2 MiB (4%)
    Title                       : Frances [CinemaniaHDD]
    Language                    : French
    Service kind                : Complete Main
    Default                     : Yes
    Forced                      : Yes

    Text #1
    ID                          : 3
    Format                      : UTF-8
    Codec ID                    : S_TEXT/UTF8
    Codec ID/Info               : UTF-8 Plain Text
    Duration                    : 17 min 54 s
    Bit rate                    : 70 b/s
    Count of elements           : 264
    Stream size                 : 9.26 KiB (0%)
    Title                       : Español-SRT [CinemaniaHDD]
    Language                    : Spanish
    Default                     : Yes
    Forced                      : Yes

    Text #2
    ID                          : 4
    Format                      : UTF-8
    Codec ID                    : S_TEXT/UTF8
    Codec ID/Info               : UTF-8 Plain Text
    Duration                    : 17 min 54 s
    Bit rate                    : 73 b/s
    Count of elements           : 263
    Stream size                 : 9.60 KiB (0%)
    Title                       : Ingles-SRT [CinemaniaHDD]
    Language                    : English
    Default                     : No
    Forced                      : No

  • Peso: 1.3 GiB Aprox C/U -- 12.7 GiB -- 10 Chapters

Sinopsis

Descargar Stalk (2020) Temporada 1 HMAX WEB-DL 1080p SUB. Después de ser humillado por otros estudiantes de ingeniería, Lucas alias Lux, un genio de la informática, hackea sus teléfonos y computadoras para aprender todos sus secretos y así llevar adelante su plan de venganza.

Frances AC3 2.0 Web

Ficha técnica

Video trailer de la película

Enlaces de descarga

Rip de Bluray

Descargar Stalk (2020) Temporada 1 HMAX WEB-DL 1080p SUB




Aportes de DPeliculasHDmega la pass es:dpeliculashdmega.org Aportes de CinemaniaHD la pass es:cinemaniahdd.com Aportes recientes:cinemaniahdd.net
Guardado en : Drama , HBOMAX , Series

Películas relacionadas

descargar Stalk (2020) Temporada 1 HMAX WEB-DL 1080p SUB WEBDL 1080p gratis, Stalk (2020) Temporada 1 HMAX WEB-DL 1080p SUB WEBDL mega 1 link, Stalk (2020) Temporada 1 HMAX WEB-DL 1080p SUB WEBDL serie completa, descargar Stalk (2020) Temporada 1 HMAX WEB-DL 1080p SUB WEBDL gratis en mega.

Stalk (2020) Temporada 1 HMAX WEB-DL 1080p SUB pelicula full hd, Stalk (2020) Temporada 1 HMAX WEB-DL 1080p SUB mega latino, Stalk (2020) Temporada 1 HMAX WEB-DL 1080p SUB 4k latino, Stalk (2020) Temporada 1 HMAX WEB-DL 1080p SUB pelicula completa, Stalk (2020) Temporada 1 HMAX WEB-DL 1080p SUB descargar gratis, descargar Stalk (2020) Temporada 1 HMAX WEB-DL 1080p SUB pelicula latino, Stalk (2020) Temporada 1 HMAX WEB-DL 1080p SUB 1 link mega, Stalk (2020) Temporada 1 HMAX WEB-DL 1080p SUB 1 link google drive, Stalk (2020) Temporada 1 HMAX WEB-DL 1080p SUB hd 1080p latino.
Comentarios 0