×

¿Problemas para descargar con Mozilla, EDGE? Deshabilita la opción "Abrir vinculos en una pestaña nueva" tal como lo muestra ésta imagen.

Sra. Asesina en serie (2020) NF WEB-DL 1080p Latino

507 vistas

Información de Sra. Asesina en serie (2020) NF WEB-DL 1080p Latino

Datos de la película

  • Calidad: WEBDL
  • Audio: Español Latino AC3 5.1 Netflix - Ingles AC3 5.1 Netflix
  • Subtitulos: Español Latino SRT- FORZADOS SRT
  • Resolución: 1920x1080
  • Formato: MKV
  • Codec: H.264
  • Encoder: cinemaniahdd
  • Mediainfo: Clic para Mostrar Datos Ver
  • Mrs. Serial Killer (2020) NF WEB-DL 1080p Latino.mkv
    Format                      : Matroska
    Format version              : Version 4
    File size                   : 4.86 GiB
    Duration                    : 1 h 46 min
    Overall bit rate mode       : Variable
    Overall bit rate            : 6 504 kb/s
    Movie name                  : Mrs. Serial Killer (2020) - CinemaniaHDD.Net
    Encoded date                : UTC 2020-05-01 22:55:25
    Writing application         : mkvmerge v42.0.0 ('Overtime') 64-bit
    Writing library             : libebml v1.3.10 + libmatroska v1.5.2

    Video
    ID                          : 1
    Format                      : AVC
    Format/Info                 : Advanced Video Codec
    Format profile              : Main@L4
    Format settings             : CABAC / 3 Ref Frames
    Format settings, CABAC      : Yes
    Format settings, ReFrames   : 3 frames
    Codec ID                    : V_MPEG4/ISO/AVC
    Duration                    : 1 h 46 min
    Bit rate mode               : Variable
    Bit rate                    : 5 800 kb/s
    Maximum bit rate            : 8 700 kb/s
    Width                       : 1 920 pixels
    Height                      : 1 080 pixels
    Display aspect ratio        : 16:9
    Frame rate mode             : Constant
    Frame rate                  : 24.000 FPS
    Color space                 : YUV
    Chroma subsampling          : 4:2:0
    Bit depth                   : 8 bits
    Scan type                   : Progressive
    Bits/(Pixel*Frame)          : 0.117
    Stream size                 : 4.28 GiB (88%)
    Title                       : CinemaniaHDD
    Writing library             : x264 core 148 r2717 0d2410d
    Encoding settings           : cabac=1 / ref=3 / deblock=1:0:0 / analyse=0x1:0x111 / me=umh / subme=10 / psy=1 / psy_rd=1.00:0.00 / mixed_ref=1 / me_range=24 / chroma_me=1 / trellis=2 / 8x8dct=0 / cqm=0 / deadzone=21,11 / fast_pskip=1 / chroma_qp_offset=-2 / threads=8 / lookahead_threads=1 / sliced_threads=0 / nr=0 / decimate=1 / interlaced=0 / bluray_compat=0 / stitchable=1 / constrained_intra=0 / bframes=2 / b_pyramid=0 / b_adapt=2 / b_bias=0 / direct=3 / weightb=1 / open_gop=0 / weightp=2 / keyint=250 / keyint_min=24 / scenecut=0 / intra_refresh=0 / rc_lookahead=48 / rc=2pass / mbtree=1 / bitrate=5800 / ratetol=1.0 / qcomp=0.50 / qpmin=6 / qpmax=51 / qpstep=4 / cplxblur=20.0 / qblur=0.5 / vbv_maxrate=8700 / vbv_bufsize=11600 / nal_hrd=vbr / filler=0 / ip_ratio=1.40 / aq=1:1.00
    Default                     : Yes
    Forced                      : No

    Audio #1
    ID                          : 2
    Format                      : AC-3
    Format/Info                 : Audio Coding 3
    Commercial name             : Dolby Digital
    Codec ID                    : A_AC3
    Duration                    : 1 h 46 min
    Bit rate mode               : Constant
    Bit rate                    : 384 kb/s
    Channel(s)                  : 6 channels
    Channel layout              : L R C LFE Ls Rs
    Sampling rate               : 48.0 kHz
    Frame rate                  : 31.250 FPS (1536 SPF)
    Bit depth                   : 16 bits
    Compression mode            : Lossy
    Stream size                 : 294 MiB (6%)
    Title                       : Español latino [CinemaniaHDD]
    Language                    : Spanish
    Service kind                : Complete Main
    Default                     : Yes
    Forced                      : No

    Audio #2
    ID                          : 3
    Format                      : AC-3
    Format/Info                 : Audio Coding 3
    Commercial name             : Dolby Digital
    Codec ID                    : A_AC3
    Duration                    : 1 h 46 min
    Bit rate mode               : Constant
    Bit rate                    : 384 kb/s
    Channel(s)                  : 6 channels
    Channel layout              : L R C LFE Ls Rs
    Sampling rate               : 48.0 kHz
    Frame rate                  : 31.250 FPS (1536 SPF)
    Bit depth                   : 16 bits
    Compression mode            : Lossy
    Stream size                 : 294 MiB (6%)
    Title                       : Hindi [CinemaniaHDD]
    Language                    : Hindi
    Service kind                : Complete Main
    Default                     : No
    Forced                      : No

    Text #1
    ID                          : 4
    Format                      : UTF-8
    Codec ID                    : S_TEXT/UTF8
    Codec ID/Info               : UTF-8 Plain Text
    Duration                    : 1 h 46 min
    Bit rate                    : 12 b/s
    Count of elements           : 320
    Stream size                 : 9.94 KiB (0%)
    Title                       : Forzados [CinemaniaHDD]
    Language                    : Spanish
    Default                     : Yes
    Forced                      : Yes

    Text #2
    ID                          : 5
    Format                      : UTF-8
    Codec ID                    : S_TEXT/UTF8
    Codec ID/Info               : UTF-8 Plain Text
    Duration                    : 1 h 46 min
    Bit rate                    : 47 b/s
    Count of elements           : 1142
    Stream size                 : 36.9 KiB (0%)
    Title                       : Español latino [CinemaniaHDD]
    Language                    : Spanish
    Default                     : No
    Forced                      : No

    Text #3
    ID                          : 6
    Format                      : UTF-8
    Codec ID                    : S_TEXT/UTF8
    Codec ID/Info               : UTF-8 Plain Text
    Duration                    : 1 h 41 min
    Bit rate                    : 42 b/s
    Count of elements           : 1123
    Stream size                 : 31.7 KiB (0%)
    Title                       : Inglés [CinemaniaHDD]
    Language                    : English
    Default                     : No
    Forced                      : No

     

  • Peso: 4.86 GiB

Sinopsis

Cuando encarcelan a un médico por una serie de estremecedores asesinatos, su leal mujer se dispone a cometer un crimen idéntico para probar su inocencia.

Ficha técnica

Video trailer de la película

Enlaces de descarga

Rip de Bluray

Descargar Sra. Asesina en serie (2020) NF WEB-DL 1080p Latino




Aportes de DPeliculasHDmega la pass es:dpeliculashdmega.org Aportes de CinemaniaHD la pass es:cinemaniahdd.com Aportes recientes:cinemaniahdd.net
Guardado en : Netflix , Suspenso

Películas relacionadas

  • 57 Seconds (2023) AMZN WEB-DL 1080p Latino

    57 Seconds (2023) AMZN WEB-DL 1080p Latino

    2023
    57 Seconds (2023) AMZN WEB-DL 1080p Latino

    1h 39m 2023

    Cuando un blogger de tecnología consigue una entrevista con un gurú de la tecnología y detiene un...

    Director: Taylor DiMarco

    Género: Acción

    Actores: Valerie E. Lamb

  • The Beekeeper (2024) AMZN WEB-DL 1080p Latino

    The Beekeeper (2024) AMZN WEB-DL 1080p Latino

    2024
    The Beekeeper (2024) AMZN WEB-DL 1080p Latino

    1h 45m 2024

    La brutal campaña de venganza de Adam Clay adquiere tintes nacionales tras revelarse que es un antiguo...

    Director: Vanluke Watson

    Género: Acción

    Actores: Victor Perez

  • Naturaleza Humana (2022) REMUX 1080p Latino

    Naturaleza Humana (2022) REMUX 1080p Latino

    2022
    Naturaleza Humana (2022) REMUX 1080p Latino

    1h 31m 2022

    Descargar Naturaleza Humana (2022) REMUX 1080p Latino. Una historia sobre la mayoría de edad contada...

    Director: Louie Gibson

    Género: Drama

    Actores: Tim Heidecker

descargar Sra. Asesina en serie (2020) NF WEB-DL 1080p Latino WEBDL 1080p gratis, Sra. Asesina en serie (2020) NF WEB-DL 1080p Latino WEBDL mega 1 link, Sra. Asesina en serie (2020) NF WEB-DL 1080p Latino WEBDL pelicula completa, descargar Sra. Asesina en serie (2020) NF WEB-DL 1080p Latino WEBDL gratis en mega.

Sra. Asesina en serie (2020) NF WEB-DL 1080p Latino pelicula full hd, Sra. Asesina en serie (2020) NF WEB-DL 1080p Latino mega latino, Sra. Asesina en serie (2020) NF WEB-DL 1080p Latino 4k latino, Sra. Asesina en serie (2020) NF WEB-DL 1080p Latino pelicula completa, Sra. Asesina en serie (2020) NF WEB-DL 1080p Latino descargar gratis, descargar Sra. Asesina en serie (2020) NF WEB-DL 1080p Latino pelicula latino, Sra. Asesina en serie (2020) NF WEB-DL 1080p Latino 1 link mega, Sra. Asesina en serie (2020) NF WEB-DL 1080p Latino 1 link google drive, Sra. Asesina en serie (2020) NF WEB-DL 1080p Latino hd 1080p latino.
Comentarios 0