×

¿Problemas para descargar con Mozilla, EDGE? Deshabilita la opción "Abrir vinculos en una pestaña nueva" tal como lo muestra ésta imagen.

Sr. y Sra. Smith (2005) HD 1080p Latino – CMHDD

405 vistas

Información de Sr. y Sra. Smith (2005) HD 1080p Latino – CMHDD

Datos de la película

  • Calidad: 1080p
  • Audio: Español Latino AC3 5.1 BLURAY - Ingles AC3 5.1 BLURAY
  • Subtitulos: Español Latino SRT- FORZADOS SRT
  • Resolución: 1920x818p
  • Formato: MKV
  • Codec: H.264
  • Encoder: Dracarys
  • Mediainfo: Clic para Mostrar Datos Ver
  • Format                      : Matroska
    Format version              : Version 4
    File size                   : 3.83 GiB
    Duration                    : 1 h 59 min
    Overall bit rate            : 4 567 kb/s
    Movie name                  : Sr. y Sra. Smith (2005) HD 1080p Latino - CMHDD
    Encoded date                : UTC 2020-06-16 21:55:29
    Writing application         : mkvmerge v46.0.0 ('No Deeper Escape') 64-bit
    Writing library             : libebml v1.3.10 + libmatroska v1.5.2

    Video
    ID                          : 1
    Format                      : AVC
    Format/Info                 : Advanced Video Codec
    Format profile              : High@L4.1
    Format settings             : CABAC / 5 Ref Frames
    Format settings, CABAC      : Yes
    Format settings, Reference  : 5 frames
    Codec ID                    : V_MPEG4/ISO/AVC
    Duration                    : 1 h 59 min
    Bit rate                    : 3 500 kb/s
    Width                       : 1 980 pixels
    Height                      : 818 pixels
    Display aspect ratio        : 2.35:1
    Frame rate mode             : Constant
    Frame rate                  : 23.976 (24000/1001) FPS
    Color space                 : YUV
    Chroma subsampling          : 4:2:0
    Bit depth                   : 8 bits
    Scan type                   : Progressive
    Bits/(Pixel*Frame)          : 0.093
    Stream size                 : 2.91 GiB (76%)
    Writing library             : x264 core 157 r2935 545de2f
    Encoding settings           : cabac=1 / ref=5 / deblock=1:0:0 / analyse=0x3:0x113 / me=hex / subme=8 / psy=1 / psy_rd=1.00:0.00 / mixed_ref=1 / me_range=16 / chroma_me=1 / trellis=2 / 8x8dct=1 / cqm=0 / deadzone=21,11 / fast_pskip=1 / chroma_qp_offset=-2 / threads=24 / lookahead_threads=4 / sliced_threads=0 / nr=0 / decimate=1 / interlaced=0 / bluray_compat=0 / constrained_intra=0 / bframes=3 / b_pyramid=2 / b_adapt=1 / b_bias=0 / direct=3 / weightb=1 / open_gop=0 / weightp=2 / keyint=240 / keyint_min=24 / scenecut=40 / intra_refresh=0 / rc_lookahead=50 / rc=abr / mbtree=1 / bitrate=3500 / ratetol=1.0 / qcomp=0.60 / qpmin=0 / qpmax=69 / qpstep=4 / vbv_maxrate=62500 / vbv_bufsize=78125 / nal_hrd=none / filler=0 / ip_ratio=1.40 / aq=1:1.00
    Default                     : Yes
    Forced                      : No
    Color range                 : Limited
    Color primaries             : BT.709
    Transfer characteristics    : BT.709
    Matrix coefficients         : BT.709

    Audio #1
    ID                          : 2
    Format                      : AC-3
    Format/Info                 : Audio Coding 3
    Commercial name             : Dolby Digital
    Codec ID                    : A_AC3
    Duration                    : 1 h 59 min
    Bit rate mode               : Constant
    Bit rate                    : 448 kb/s
    Channel(s)                  : 6 channels
    Channel layout              : L R C LFE Ls Rs
    Sampling rate               : 48.0 kHz
    Frame rate                  : 31.250 FPS (1536 SPF)
    Compression mode            : Lossy
    Stream size                 : 384 MiB (10%)
    Language                    : Spanish
    Service kind                : Complete Main
    Default                     : Yes
    Forced                      : No

    Audio #2
    ID                          : 3
    Format                      : AC-3
    Format/Info                 : Audio Coding 3
    Commercial name             : Dolby Digital
    Codec ID                    : A_AC3
    Duration                    : 1 h 59 min
    Bit rate mode               : Constant
    Bit rate                    : 640 kb/s
    Channel(s)                  : 6 channels
    Channel layout              : L R C LFE Ls Rs
    Sampling rate               : 48.0 kHz
    Frame rate                  : 31.250 FPS (1536 SPF)
    Compression mode            : Lossy
    Delay relative to video     : -5 ms
    Stream size                 : 549 MiB (14%)
    Language                    : English
    Service kind                : Complete Main
    Default                     : No
    Forced                      : No

    Text #1
    ID                          : 4
    Format                      : UTF-8
    Codec ID                    : S_TEXT/UTF8
    Codec ID/Info               : UTF-8 Plain Text
    Duration                    : 1 h 59 min
    Bit rate                    : 34 b/s
    Count of elements           : 880
    Stream size                 : 30.4 KiB (0%)
    Language                    : Spanish
    Default                     : No
    Forced                      : No

    Text #2
    ID                          : 5
    Format                      : UTF-8
    Codec ID                    : S_TEXT/UTF8
    Codec ID/Info               : UTF-8 Plain Text
    Duration                    : 1 h 53 min
    Bit rate                    : 0 b/s
    Count of elements           : 13
    Stream size                 : 234 Bytes (0%)
    Title                       : Forzados
    Language                    : Spanish
    Default                     : Yes
    Forced                      : Yes

    Menu
    00:00:00.000                : :Chapter 1
    00:02:05.584                : :Chapter 2
    00:03:38.844                : :Chapter 3
    00:06:30.432                : :Chapter 4
    00:09:08.631                : :Chapter 5
    00:14:14.812                : :Chapter 6
    00:17:17.245                : :Chapter 7
    00:22:51.787                : :Chapter 8
    00:25:23.856                : :Chapter 9
    00:34:51.131                : :Chapter 10
    00:39:28.283                : :Chapter 11
    00:44:43.347                : :Chapter 12
    00:50:14.428                : :Chapter 13
    00:52:56.590                : :Chapter 14
    00:56:04.069                : :Chapter 15
    01:00:53.567                : :Chapter 16
    01:06:00.748                : :Chapter 17
    01:07:56.739                : :Chapter 18
    01:17:31.438                : :Chapter 19
    01:23:58.242                : :Chapter 20
    01:29:06.091                : :Chapter 21
    01:31:28.525                : :Chapter 22
    01:35:48.493                : :Chapter 23
    01:41:38.259                : :Chapter 24
    01:46:03.148                : :Chapter 25
    01:50:02.763                : :Chapter 26
    01:51:22.759                : :Chapter 27
    01:52:27.574                : :Chapter 28

  • Peso: 3.83 GiB

Sinopsis

Jane Smith (Angelina Jolie) y John. Smith (Brad Pitt) forman una pareja de vida acomodada dentro de un ordinario y monótono matrimonio suburbano. Además ambos ocultan algo por lo que su pareja mataría por saber: los dos son agentes secretos, asesinos increíblemente eficientes que trabajan para organizaciones que compiten entre sí. Además, un día el Sr. y la Sra. Smith descubren una nueva fuente de emoción en su matrimonio cuando se les contrata para asesinarse mutuamente, pues será entonces cuando comienza la verdadera diversión…

Ficha técnica

Video trailer de la película

Enlaces de descarga

Rip de Bluray

Descargar Sr. y Sra. Smith (2005) HD 1080p Latino – CMHDD




Aportes de DPeliculasHDmega la pass es:dpeliculashdmega.org Aportes de CinemaniaHD la pass es:cinemaniahdd.com
Guardado en : Acción , Comedia , Drama , HD 1080p , Suspenso

Películas relacionadas

  • Paradise Highway (2022) HD 1080p Latino

    Paradise Highway (2022) HD 1080p Latino

    2022
    Paradise Highway (2022) HD 1080p Latino

    1h 55m 2022

    Descargar Paradise Highway (2022) HD 1080p Latino. Un camionero se ha visto obligado a pasar de contrabando...

    Director: Anna Gutto

    Género: Crimen

    Actores: Xavier Scott Evans

  • Paradise Highway (2022) PLACEBO Full HD 1080p Latino

    Paradise Highway (2022) PLACEBO Full HD 1080p Latino

    2022
    Paradise Highway (2022) PLACEBO Full HD 1080p Latino

    1h 55m 2022

    Descargar Paradise Highway (2022) PLACEBO Full HD 1080p Latino. Un camionero se ha visto obligado a pasar...

    Director: Anna Gutto

    Género: Crimen

    Actores: Xavier Scott Evans

  • Paradise Highway (2022) REMUX 1080p Latino

    Paradise Highway (2022) REMUX 1080p Latino

    2022
    Paradise Highway (2022) REMUX 1080p Latino

    1h 55m 2022

    Descargar Paradise Highway (2022) REMUX 1080p Latino. Un camionero se ha visto obligado a pasar de contrabando...

    Director: Anna Gutto

    Género: Crimen

    Actores: Xavier Scott Evans

  • Shotgun Wedding (2022) AMZN WEB-DL 1080p Latino

    Shotgun Wedding (2022) AMZN WEB-DL 1080p Latino

    2022
    Shotgun Wedding (2022) AMZN WEB-DL 1080p Latino

    1h 41m 2022

    Darcy y Tom reúnen a sus familias para la boda de destino definitiva, pero cuando toman como rehenes...

    Director: Jason Moore

    Género: Acción

    Actores: Steve Coulter

descargar Sr. y Sra. Smith (2005) HD 1080p Latino – CMHDD 1080p 1080p gratis, Sr. y Sra. Smith (2005) HD 1080p Latino – CMHDD 1080p mega 1 link, Sr. y Sra. Smith (2005) HD 1080p Latino – CMHDD 1080p pelicula completa, descargar Sr. y Sra. Smith (2005) HD 1080p Latino – CMHDD 1080p gratis en mega.

Sr. y Sra. Smith (2005) HD 1080p Latino – CMHDD pelicula full hd, Sr. y Sra. Smith (2005) HD 1080p Latino – CMHDD mega latino, Sr. y Sra. Smith (2005) HD 1080p Latino – CMHDD 4k latino, Sr. y Sra. Smith (2005) HD 1080p Latino – CMHDD pelicula completa, Sr. y Sra. Smith (2005) HD 1080p Latino – CMHDD descargar gratis, descargar Sr. y Sra. Smith (2005) HD 1080p Latino – CMHDD pelicula latino, Sr. y Sra. Smith (2005) HD 1080p Latino – CMHDD 1 link mega, Sr. y Sra. Smith (2005) HD 1080p Latino – CMHDD 1 link google drive, Sr. y Sra. Smith (2005) HD 1080p Latino – CMHDD hd 1080p latino.
Comentarios 0