×

¿Problemas para descargar con Mozilla, EDGE? Deshabilita la opción "Abrir vinculos en una pestaña nueva" tal como lo muestra ésta imagen.

Squared Love (2021) NF WEB-DL 1080p Latino

188 vistas

Información de Squared Love (2021) NF WEB-DL 1080p Latino

Datos de la película

  • Calidad:
  • Audio: Español Latino AC3 5.1 Netflix - Ingles AC3 5.1 Netflix
  • Subtitulos: Español Latino SRT- FORZADOS SRT
  • Resolución: 1920x1080
  • Formato: MKV
  • Codec: H.264
  • Encoder: cinemaniahdd
  • Mediainfo: Clic para Mostrar Datos Ver
  • Squared Love (2021) NF WEB-DL 1080p Latino [CNMNHDD].mkv
    Format                      : Matroska
    Format version              : Version 4
    File size                   : 3.28 GiB
    Duration                    : 1 h 42 min
    Overall bit rate mode       : Variable
    Overall bit rate            : 4 582 kb/s
    Movie name                  : Squared Love (2021) - CinemaniaHDD.Net
    Encoded date                : UTC 2021-02-11 22:44:14
    Writing application         : mkvmerge v51.0.0 ('I Wish') 64-bit
    Writing library             : libebml v1.4.0 + libmatroska v1.6.2

    Video
    ID                          : 1
    Format                      : AVC
    Format/Info                 : Advanced Video Codec
    Format profile              : Main@L4
    Format settings             : CABAC / 3 Ref Frames
    Format settings, CABAC      : Yes
    Format settings, Reference  : 3 frames
    Codec ID                    : V_MPEG4/ISO/AVC
    Duration                    : 1 h 42 min
    Bit rate mode               : Variable
    Bit rate                    : 3 811 kb/s
    Nominal bit rate            : 4 226 kb/s
    Maximum bit rate            : 7 305 kb/s
    Width                       : 1 920 pixels
    Height                      : 1 080 pixels
    Display aspect ratio        : 16:9
    Frame rate mode             : Constant
    Frame rate                  : 24.000 FPS
    Color space                 : YUV
    Chroma subsampling          : 4:2:0
    Bit depth                   : 8 bits
    Scan type                   : Progressive
    Bits/(Pixel*Frame)          : 0.077
    Stream size                 : 2.73 GiB (83%)
    Title                       : CinemaniaHDD
    Writing library             : x264 core 148 r2722 1b0121b
    Encoding settings           : cabac=1 / ref=3 / deblock=1:0:0 / analyse=0x1:0x111 / me=umh / subme=10 / psy=1 / psy_rd=1.00:0.00 / mixed_ref=1 / me_range=24 / chroma_me=1 / trellis=2 / 8x8dct=0 / cqm=0 / deadzone=21,11 / fast_pskip=1 / chroma_qp_offset=-2 / threads=8 / lookahead_threads=1 / sliced_threads=0 / nr=0 / decimate=1 / interlaced=0 / bluray_compat=0 / stitchable=1 / constrained_intra=0 / bframes=2 / b_pyramid=0 / b_adapt=2 / b_bias=0 / direct=3 / weightb=1 / open_gop=0 / weightp=2 / keyint=250 / keyint_min=24 / scenecut=0 / intra_refresh=0 / rc_lookahead=48 / rc=2pass / mbtree=1 / bitrate=4226 / ratetol=1.0 / qcomp=0.50 / qpmin=6 / qpmax=51 / qpstep=4 / cplxblur=20.0 / qblur=0.5 / vbv_maxrate=7305 / vbv_bufsize=9740 / nal_hrd=vbr / filler=0 / ip_ratio=1.40 / aq=1:1.00
    Default                     : Yes
    Forced                      : No

    Audio #1
    ID                          : 2
    Format                      : AC-3
    Format/Info                 : Audio Coding 3
    Commercial name             : Dolby Digital
    Codec ID                    : A_AC3
    Duration                    : 1 h 42 min
    Bit rate mode               : Constant
    Bit rate                    : 384 kb/s
    Channel(s)                  : 6 channels
    Channel layout              : L R C LFE Ls Rs
    Sampling rate               : 48.0 kHz
    Frame rate                  : 31.250 FPS (1536 SPF)
    Compression mode            : Lossy
    Stream size                 : 281 MiB (8%)
    Title                       : Español latino [CinemaniaHDD]
    Language                    : Spanish
    Service kind                : Complete Main
    Default                     : Yes
    Forced                      : No

    Audio #2
    ID                          : 3
    Format                      : AC-3
    Format/Info                 : Audio Coding 3
    Commercial name             : Dolby Digital
    Codec ID                    : A_AC3
    Duration                    : 1 h 42 min
    Bit rate mode               : Constant
    Bit rate                    : 384 kb/s
    Channel(s)                  : 6 channels
    Channel layout              : L R C LFE Ls Rs
    Sampling rate               : 48.0 kHz
    Frame rate                  : 31.250 FPS (1536 SPF)
    Compression mode            : Lossy
    Stream size                 : 281 MiB (8%)
    Title                       : Inglés [CinemaniaHDD]
    Language                    : English
    Service kind                : Complete Main
    Default                     : No
    Forced                      : No

    Text #1
    ID                          : 4
    Format                      : UTF-8
    Codec ID                    : S_TEXT/UTF8
    Codec ID/Info               : UTF-8 Plain Text
    Duration                    : 1 h 41 min
    Bit rate                    : 0 b/s
    Count of elements           : 17
    Stream size                 : 483 Bytes (0%)
    Title                       : Forzados [CinemaniaHDD]
    Language                    : Spanish
    Default                     : Yes
    Forced                      : Yes

    Text #2
    ID                          : 5
    Format                      : UTF-8
    Codec ID                    : S_TEXT/UTF8
    Codec ID/Info               : UTF-8 Plain Text
    Duration                    : 1 h 41 min
    Bit rate                    : 53 b/s
    Count of elements           : 1331
    Stream size                 : 39.8 KiB (0%)
    Title                       : Español latino [CinemaniaHDD]
    Language                    : Spanish
    Default                     : No
    Forced                      : No

    Text #3
    ID                          : 6
    Format                      : UTF-8
    Codec ID                    : S_TEXT/UTF8
    Codec ID/Info               : UTF-8 Plain Text
    Duration                    : 1 h 40 min
    Bit rate                    : 85 b/s
    Count of elements           : 1828
    Stream size                 : 63.1 KiB (0%)
    Title                       : Inglés [CC] [CinemaniaHDD]
    Language                    : English
    Default                     : No
    Forced                      : No

     

  • Peso: 3.28 GiB

Sinopsis

Un periodista famoso y mujeriego empedernido duda de las decisiones que ha tomado en la vida cuando se enamora de una modelo misteriosa que lleva una doble vida.

Ficha técnica

Video trailer de la película

Enlaces de descarga

Rip de Bluray

Descargar Squared Love (2021) NF WEB-DL 1080p Latino




Aportes de DPeliculasHDmega la pass es:dpeliculashdmega.org Aportes de CinemaniaHD la pass es:cinemaniahdd.com
Guardado en : Comedia , Netflix , Romance

Películas relacionadas

  • El Perfumista (2022) NF WEB-DL 1080p Latino

    El Perfumista (2022) NF WEB-DL 1080p Latino

    2022
    El Perfumista (2022) NF WEB-DL 1080p Latino

    1h 36m 2022

    Descargar El Perfumista (2022) NF WEB-DL 1080p Latino. Para recuperar su sentido del olfato y el afecto...

    Director: Nils Willbrandt

    Género: Crimen

    Actores: Sólveig Arnarsdóttir

  • La familia Monster (2022) HD 1080p Latino

    La familia Monster (2022) HD 1080p Latino

    2022
    La familia Monster (2022) HD 1080p Latino

    1h 49m 2022

    Descargar La familia Monster (2022) HD 1080p Latino. Reboot de "The Munsters", que sigue las desventuras...

    Director: Rob Zombie

    Género: Comedia

    Actores: Tomas Boykin

  • La familia Monster (2022) REMUX 1080p Latino

    La familia Monster (2022) REMUX 1080p Latino

    2022
    La familia Monster (2022) REMUX 1080p Latino

    1h 49m 2022

    Descargar La familia Monster (2022) REMUX 1080p Latino. Reboot de "The Munsters", que sigue las desventuras...

    Director: Rob Zombie

    Género: Comedia

    Actores: Tomas Boykin

  • Cobra Kai (2022) Temporada 5 NF WEB-DL 1080p Latino

    Cobra Kai (2022) Temporada 5 NF WEB-DL 1080p Latino

    2018
    Cobra Kai (2022) Temporada 5 NF WEB-DL 1080p Latino

    0h 30m 2018

    Descargar Cobra Kai (2022) Temporada 5 NF WEB-DL 1080p Latino. Cobra Kai tiene lugar treinta y cuatro...

    Director: Josh Heald

    Género: Action & Adventure

    Actores: Xolo Mariduena

descargar Squared Love (2021) NF WEB-DL 1080p Latino 1080p gratis, Squared Love (2021) NF WEB-DL 1080p Latino mega 1 link, Squared Love (2021) NF WEB-DL 1080p Latino pelicula completa, descargar Squared Love (2021) NF WEB-DL 1080p Latino gratis en mega.

Squared Love (2021) NF WEB-DL 1080p Latino pelicula full hd, Squared Love (2021) NF WEB-DL 1080p Latino mega latino, Squared Love (2021) NF WEB-DL 1080p Latino 4k latino, Squared Love (2021) NF WEB-DL 1080p Latino pelicula completa, Squared Love (2021) NF WEB-DL 1080p Latino descargar gratis, descargar Squared Love (2021) NF WEB-DL 1080p Latino pelicula latino, Squared Love (2021) NF WEB-DL 1080p Latino 1 link mega, Squared Love (2021) NF WEB-DL 1080p Latino 1 link google drive, Squared Love (2021) NF WEB-DL 1080p Latino hd 1080p latino.
Comentarios 0