×

¿Problemas para descargar con Mozilla, EDGE? Deshabilita la opción "Abrir vinculos en una pestaña nueva" tal como lo muestra ésta imagen.

Juego de espías (2001) REMUX 1080p Latino

352 vistas

Información de Juego de espías (2001) REMUX 1080p Latino

Datos de la película

  • Calidad: Full 1080p
  • Audio: Español Latino DTS 5.1 BLURAY - Ingles DTS-HD 5.1 BLURAY
  • Subtitulos: Español Latino PGS - Ingles PGS
  • Resolución: 1920x1080p
  • Formato: MKV
  • Codec: H.264
  • Encoder: CinefiloCool
  • Mediainfo: Clic para Mostrar Datos Ver
  • Juego De Espias (2001) REMUX 1080p Latino-CMHDD.mkv Format                      : Matroska Format version              : Version 4 File size                   : 29.6 GiB Duration                    : 2 h 6 min Overall bit rate mode       : Variable Overall bit rate            : 33.4 Mb/s Movie name                  : Spy Game (2001) CinemaniaHDD.Net Encoded date                : UTC 2022-01-20 04:37:01 Writing application         : mkvmerge v56.1.0 ('My Friend') 64-bit Writing library             : libebml v1.4.2 + libmatroska v1.6.4 Attachments                 : CINEMANIAHD.png Video ID                          : 1 ID in the original source m : 4113 (0x1011) Format                      : VC-1 Format profile              : Advanced@L3 Codec ID                    : V_MS/VFW/FOURCC / WVC1 Codec ID/Hint               : Microsoft Duration                    : 2 h 6 min Bit rate                    : 28.3 Mb/s Width                       : 1 920 pixels Height                      : 1 080 pixels Display aspect ratio        : 16:9 Frame rate mode             : Constant Frame rate                  : 23.976 (24000/1001) FPS Color space                 : YUV Chroma subsampling          : 4:2:0 Bit depth                   : 8 bits Scan type                   : Progressive Compression mode            : Lossy Bits/(Pixel*Frame)          : 0.570 Stream size                 : 25.1 GiB (85%) Title                       : REMUX HD1080p [CinemaniaHDD] Language                    : English Default                     : Yes Forced                      : Yes Original source medium      : Blu-ray Audio #1 ID                          : 2 ID in the original source m : 4353 (0x1101) Format                      : DTS Format/Info                 : Digital Theater Systems Codec ID                    : A_DTS Duration                    : 2 h 6 min Bit rate mode               : Constant Bit rate                    : 768 kb/s Channel(s)                  : 6 channels Channel layout              : C L R Ls Rs LFE Sampling rate               : 48.0 kHz Frame rate                  : 93.750 FPS (512 SPF) Bit depth                   : 24 bits Compression mode            : Lossy Stream size                 : 696 MiB (2%) Title                       : Español Latino [CinemaniaHDD] Language                    : Spanish Default                     : Yes Forced                      : Yes Original source medium      : Blu-ray Audio #2 ID                          : 3 ID in the original source m : 4352 (0x1100) Format                      : DTS XLL Format/Info                 : Digital Theater Systems Commercial name             : DTS-HD Master Audio Codec ID                    : A_DTS Duration                    : 2 h 6 min Bit rate mode               : Variable Bit rate                    : 4 317 kb/s Channel(s)                  : 6 channels Channel layout              : C L R Ls Rs LFE Sampling rate               : 48.0 kHz Frame rate                  : 93.750 FPS (512 SPF) Bit depth                   : 24 bits Compression mode            : Lossless Stream size                 : 3.82 GiB (13%) Title                       : Ingles [CinemaniaHDD] Language                    : English Default                     : No Forced                      : No Original source medium      : Blu-ray Text #1 ID                          : 4 ID in the original source m : 4611 (0x1203) Format                      : PGS Muxing mode                 : zlib Codec ID                    : S_HDMV/PGS Codec ID/Info               : Picture based subtitle format used on BDs/HD-DVDs Duration                    : 2 h 1 min Bit rate                    : 966 b/s Count of elements           : 96 Stream size                 : 857 KiB (0%) Title                       : Forzados-PGS [CinemaniaHDD] Language                    : Spanish Default                     : No Forced                      : No Original source medium      : Blu-ray Text #2 ID                          : 5 ID in the original source m : 4609 (0x1201) Format                      : PGS Muxing mode                 : zlib Codec ID                    : S_HDMV/PGS Codec ID/Info               : Picture based subtitle format used on BDs/HD-DVDs Duration                    : 2 h 1 min Bit rate                    : 35.4 kb/s Count of elements           : 2634 Stream size                 : 30.6 MiB (0%) Title                       : Español-PGS [CinemaniaHDD] Language                    : Spanish Default                     : No Forced                      : No Original source medium      : Blu-ray Text #3 ID                          : 6 ID in the original source m : 4608 (0x1200) Format                      : PGS Muxing mode                 : zlib Codec ID                    : S_HDMV/PGS Codec ID/Info               : Picture based subtitle format used on BDs/HD-DVDs Duration                    : 2 h 1 min Bit rate                    : 38.2 kb/s Count of elements           : 2831 Stream size                 : 33.3 MiB (0%) Title                       : Ingles-PGS [CinemaniaHDD] Language                    : English Default                     : No Forced                      : No Original source medium      : Blu-ray Text #4 ID                          : 7 Format                      : UTF-8 Codec ID                    : S_TEXT/UTF8 Codec ID/Info               : UTF-8 Plain Text Duration                    : 2 h 1 min Bit rate                    : 1 b/s Count of elements           : 51 Stream size                 : 1.50 KiB (0%) Title                       : Forzados-SRT [CinemaniaHDD] Language                    : Spanish Default                     : Yes Forced                      : Yes Text #5 ID                          : 8 Format                      : UTF-8 Codec ID                    : S_TEXT/UTF8 Codec ID/Info               : UTF-8 Plain Text Duration                    : 2 h 1 min Bit rate                    : 56 b/s Count of elements           : 1210 Stream size                 : 50.3 KiB (0%) Title                       : Español-SRT [CinemaniaHDD] Language                    : Spanish Default                     : No Forced                      : No Menu 00:00:00.000                : Chapter 01 00:01:42.310                : Chapter 02 00:10:37.386                : Chapter 03 00:12:26.704                : Chapter 04 00:16:04.838                : Chapter 05 00:16:22.231                : Chapter 06 00:17:02.771                : Chapter 07 00:18:42.037                : Chapter 08 00:19:48.604                : Chapter 09 00:21:10.018                : Chapter 10 00:24:59.831                : Chapter 11 00:26:27.794                : Chapter 12 00:27:32.275                : Chapter 13 00:36:24.390                : Chapter 14 00:45:52.583                : Chapter 15 00:50:52.049                : Chapter 16 01:04:17.895                : Chapter 17 01:06:11.092                : Chapter 18 01:13:33.534                : Chapter 19 01:20:09.638                : Chapter 20 01:33:53.085                : Chapter 21 01:35:38.482                : Chapter 22 01:37:28.259                : Chapter 23 01:56:42.078                : Chapter 24 02:01:39.667                : Chapter 25
  • Peso: 29.6 GiB

Sinopsis

Descargar Juego de espías (2001) REMUX 1080p Latino. El día de su jubilación, el veterano agente de la CIA Nathan Muir (Robert Redford) recibe la noticia de que su discípulo Tom Bishop, alias «Boy Scout» (Brad Pitt), se ha metido en un buen lío: acusado de espionaje, se encuentra en una cárcel china y será ejecutado en un plazo de 24 horas. Temiendo que este incidente pueda afectar a un acuerdo comercial entre EE.UU. y China, la CIA decide no intervenir. Así pues, para salvar a Bishop, Muir no sólo deberá actuar al margen de la CIA, sino que, además, tendrá que hallar el modo de burlarla.

RESUBIDO, Disponible Solo Para VIP!!! 

Ficha técnica

Video trailer de la película

Enlaces de descarga

Rip de Bluray

Descargar Juego de espías (2001) REMUX 1080p Latino


Aportes de DPeliculasHDmega la pass es:dpeliculashdmega.org Aportes de CinemaniaHD la pass es:cinemaniahdd.com
Guardado en : Acción , Crimen , Remux , Suspenso

Películas relacionadas

  • Mi amigo el dragón (2016) REMUX 1080p Latino

    Mi amigo el dragón (2016) REMUX 1080p Latino

    2016
    Mi amigo el dragón (2016) REMUX 1080p Latino

    1h 43m 2016

    Descargar Mi amigo el dragón (2016) REMUX 1080p Latino. Durante años el Sr. Meacham, un viejo tallador...

    Director: Joe Nolan

    Género: Aventura

    Actores: William J. Rawbone

  • El discurso del Rey (2010) REMUX 1080p Latino

    El discurso del Rey (2010) REMUX 1080p Latino

    2010
    El discurso del Rey (2010) REMUX 1080p Latino

    1h 58m 2010

    Descargar El discurso del Rey (2010) REMUX 1080p Latino. El duque de York se convirtió en rey de Gran...

    Director: Tom Hooper

    Género: Drama

    Actores: Tony Earnshaw

  • Lucy (2014) REMUX 4K HDR Latino – CMHDD

    Lucy (2014) REMUX 4K HDR Latino – CMHDD

    2014
    Lucy (2014) REMUX 4K HDR Latino – CMHDD

    1h 30m 2014

    Lucy, una joven obligada a ejercer de mula de una nueva y potente droga, adquiere de repente enormes...

    Director: Luc Besson

    Género: Acción

    Actores: Wolfgang Pissors

descargar Juego de espías (2001) REMUX 1080p Latino Full 1080p 1080p gratis, Juego de espías (2001) REMUX 1080p Latino Full 1080p mega 1 link, Juego de espías (2001) REMUX 1080p Latino Full 1080p pelicula completa, descargar Juego de espías (2001) REMUX 1080p Latino Full 1080p gratis en mega.

Juego de espías (2001) REMUX 1080p Latino pelicula full hd, Juego de espías (2001) REMUX 1080p Latino mega latino, Juego de espías (2001) REMUX 1080p Latino 4k latino, Juego de espías (2001) REMUX 1080p Latino pelicula completa, Juego de espías (2001) REMUX 1080p Latino descargar gratis, descargar Juego de espías (2001) REMUX 1080p Latino pelicula latino, Juego de espías (2001) REMUX 1080p Latino 1 link mega, Juego de espías (2001) REMUX 1080p Latino 1 link google drive, Juego de espías (2001) REMUX 1080p Latino hd 1080p latino.
Comentarios 2
  • ricky - 21 enero, 2022

    Hola, en algun momento la vas a subir para todo publico? muchas gracias!

    • CinemaniaHDD - 31 enero, 2022

      hola, no solo disponible para VIP.