×

¿Problemas para descargar con Mozilla, EDGE? Deshabilita la opción "Abrir vinculos en una pestaña nueva" tal como lo muestra ésta imagen.

Juego de espías (2001) 1080p Latino

308 vistas

Información de Juego de espías (2001) 1080p Latino

Datos de la película

  • Calidad: 1080p
  • Audio: Español Latino AC3 5.1 BLURAY - Ingles AC3 5.1 BLURAY
  • Subtitulos: Español Latino SRT - Ingles SRT
  • Resolución: 1920x818p
  • Formato: MKV
  • Codec: H.264
  • Encoder: CinefiloCool
  • Mediainfo: Clic para Mostrar Datos Ver
  • Juego De Espias (2001) 1080p Latino-CMHDD.mkv Format                      : Matroska Format version              : Version 4 File size                   : 4.77 GiB Duration                    : 2 h 6 min Overall bit rate mode       : Variable Overall bit rate            : 5 389 kb/s Movie name                  : Spy Game (2001) CinemaniaHDD.Net Encoded date                : UTC 2023-01-31 05:53:06 Writing application         : mkvmerge v56.1.0 ('My Friend') 64-bit Writing library             : libebml v1.4.2 + libmatroska v1.6.4 Attachments                 : CINEMANIAHD.png Video ID                          : 1 Format                      : AVC Format/Info                 : Advanced Video Codec Format profile              : High@L4.1 Format settings             : CABAC / 5 Ref Frames Format settings, CABAC      : Yes Format settings, Reference  : 5 frames Codec ID                    : V_MPEG4/ISO/AVC Duration                    : 2 h 6 min Bit rate mode               : Variable Bit rate                    : 4 300 kb/s Maximum bit rate            : 62.5 Mb/s Width                       : 1 920 pixels Height                      : 818 pixels Display aspect ratio        : 2.35:1 Frame rate mode             : Constant Frame rate                  : 23.976 (24000/1001) FPS Color space                 : YUV Chroma subsampling          : 4:2:0 Bit depth                   : 8 bits Scan type                   : Progressive Bits/(Pixel*Frame)          : 0.114 Stream size                 : 3.80 GiB (80%) Writing library             : x264 core 163 r3059 b684ebe0 Encoding settings           : cabac=1 / ref=5 / deblock=1:-1:-1 / analyse=0x3:0x133 / me=umh / subme=9 / psy=1 / psy_rd=1.00:0.15 / mixed_ref=1 / me_range=16 / chroma_me=1 / trellis=2 / 8x8dct=1 / cqm=0 / deadzone=21,11 / fast_pskip=1 / chroma_qp_offset=-3 / threads=24 / lookahead_threads=2 / sliced_threads=0 / nr=0 / decimate=1 / interlaced=0 / bluray_compat=0 / constrained_intra=0 / bframes=3 / b_pyramid=2 / b_adapt=2 / b_bias=0 / direct=3 / weightb=1 / open_gop=0 / weightp=2 / keyint=240 / keyint_min=24 / scenecut=40 / intra_refresh=0 / rc_lookahead=60 / rc=2pass / mbtree=1 / bitrate=4300 / ratetol=1.0 / qcomp=0.60 / qpmin=0 / qpmax=69 / qpstep=4 / cplxblur=20.0 / qblur=0.5 / vbv_maxrate=62500 / vbv_bufsize=78125 / nal_hrd=vbr / filler=0 / ip_ratio=1.40 / aq=1:1.00 Default                     : Yes Forced                      : No Color range                 : Limited Color primaries             : BT.709 Transfer characteristics    : BT.709 Matrix coefficients         : BT.709 Audio #1 ID                          : 2 Format                      : AC-3 Format/Info                 : Audio Coding 3 Commercial name             : Dolby Digital Codec ID                    : A_AC3 Duration                    : 2 h 6 min Bit rate mode               : Constant Bit rate                    : 640 kb/s Channel(s)                  : 6 channels Channel layout              : L R C LFE Ls Rs Sampling rate               : 48.0 kHz Frame rate                  : 31.250 FPS (1536 SPF) Compression mode            : Lossy Delay relative to video     : -5 ms Stream size                 : 580 MiB (12%) Title                       : Español Latino [CinemaniaHDD] Language                    : Spanish Service kind                : Complete Main Default                     : Yes Forced                      : No Audio #2 ID                          : 3 Format                      : AC-3 Format/Info                 : Audio Coding 3 Commercial name             : Dolby Digital Codec ID                    : A_AC3 Duration                    : 2 h 6 min Bit rate mode               : Constant Bit rate                    : 448 kb/s Channel(s)                  : 6 channels Channel layout              : L R C LFE Ls Rs Sampling rate               : 48.0 kHz Frame rate                  : 31.250 FPS (1536 SPF) Compression mode            : Lossy Delay relative to video     : -5 ms Stream size                 : 406 MiB (8%) Title                       : Ingles [CinemaniaHDD] Language                    : English Service kind                : Complete Main Default                     : No Forced                      : No Text #1 ID                          : 4 Format                      : UTF-8 Codec ID                    : S_TEXT/UTF8 Codec ID/Info               : UTF-8 Plain Text Duration                    : 2 h 1 min Bit rate                    : 1 b/s Count of elements           : 51 Stream size                 : 1.50 KiB (0%) Title                       : Forzados-SRT [CinemaniaHDD] Language                    : Spanish Default                     : Yes Forced                      : Yes Text #2 ID                          : 5 Format                      : UTF-8 Codec ID                    : S_TEXT/UTF8 Codec ID/Info               : UTF-8 Plain Text Duration                    : 2 h 1 min Bit rate                    : 56 b/s Count of elements           : 1210 Stream size                 : 50.3 KiB (0%) Title                       : Español-SRT [CinemaniaHDD] Language                    : Spanish Default                     : No Forced                      : No Text #3 ID                          : 6 Format                      : UTF-8 Codec ID                    : S_TEXT/UTF8 Codec ID/Info               : UTF-8 Plain Text Duration                    : 2 h 0 min Bit rate                    : 50 b/s Count of elements           : 1194 Stream size                 : 45.0 KiB (0%) Title                       : Ingles-SRT [CinemaniaHDD] Language                    : English Default                     : No Forced                      : No Menu 00:00:00.000                : :Chapter 1 00:01:42.352                : :Chapter 2 00:10:37.428                : :Chapter 3 00:12:26.704                : :Chapter 4 00:16:04.881                : :Chapter 5 00:16:22.231                : :Chapter 6 00:17:02.855                : :Chapter 7 00:18:42.079                : :Chapter 8 00:19:48.604                : :Chapter 9 00:21:10.060                : :Chapter 10 00:24:59.873                : :Chapter 11 00:26:27.878                : :Chapter 12 00:27:32.317                : :Chapter 13 00:36:24.432                : :Chapter 14 00:45:52.583                : :Chapter 15 00:50:52.091                : :Chapter 16 01:04:17.937                : :Chapter 17 01:06:11.092                : :Chapter 18 01:13:33.534                : :Chapter 19 01:20:09.638                : :Chapter 20 01:33:53.128                : :Chapter 21 01:35:38.524                : :Chapter 22 01:37:28.259                : :Chapter 23 01:56:42.078                : :Chapter 24 02:01:39.667                : :Chapter 25
  • Peso: 4.77 GiB

Sinopsis

Descargar Juego de espías (2001) 1080p Latino. Corre el año 1991, y al veterano agente de la CIA Nathan Muir tan sólo le queda un día para retirarse, cuando recibe la noticia de que aquel que fuera su discípulo, Tom Bishop, está en un buen lío. Hecho preso en una cárcel extranjera bajo la acusación de espionaje, Bishop ha sido hallado culpable y se prevé ejecutarlo en 24 horas. Temiendo un incidente de alcance internacional, la CIA decide que es muy arriesgado tratar de salvarlo. Así las cosas, todo depende de Muir. Habiendo toda una nueva generación al cargo de la Agencia, Muir, partidario de los antiguos métodos, está a punto de dejar de pertenecer a la organización a la que ha servido durante tantos años, y deberá hallar el modo de burlarla mientras batalla por conseguir más detalles acerca de la situación de Bishop.

Ficha técnica

Video trailer de la película

Enlaces de descarga

Rip de Bluray

Descargar Juego de espías (2001) 1080p Latino




Aportes de DPeliculasHDmega la pass es:dpeliculashdmega.org Aportes de CinemaniaHD la pass es:cinemaniahdd.com Aportes recientes:cinemaniahdd.net
Guardado en : Acción , Crimen , HD 1080p , Suspenso

Películas relacionadas

  • 57 Seconds (2023) AMZN WEB-DL 1080p Latino

    57 Seconds (2023) AMZN WEB-DL 1080p Latino

    2023
    57 Seconds (2023) AMZN WEB-DL 1080p Latino

    1h 39m 2023

    Cuando un blogger de tecnología consigue una entrevista con un gurú de la tecnología y detiene un...

    Director: Taylor DiMarco

    Género: Acción

    Actores: Valerie E. Lamb

  • Hightown (2024) Temporada 3 AMZN WEB-DL 1080p Latino

    Hightown (2024) Temporada 3 AMZN WEB-DL 1080p Latino

    2020
    Hightown (2024) Temporada 3 AMZN WEB-DL 1080p Latino

    0h 55m 2020

    En la tercera temporada de Hightown, Jackie Quinones debe confiar en sus lealtades y creencias para elegir...

    Director: Rebecca Perry Cutter

    Género: Crimen

    Actores: Riley Voelkel

  • The Bodyguard (1992) 1080p Latino-CMHDD

    The Bodyguard (1992) 1080p Latino-CMHDD

    1992
    The Bodyguard (1992) 1080p Latino-CMHDD

    2h 9m 1992

    Descargar The Bodyguard (1992) 1080p Latino-CMHDD. Una cantante famosa que recibe constantes cartas anónimas...

    Director: Mick Jackson

    Género: Acción

    Actores: Whitney Houston

  • The Bodyguard (1992) Full HD 1080p Latino-CMHDD

    The Bodyguard (1992) Full HD 1080p Latino-CMHDD

    1992
    The Bodyguard (1992) Full HD 1080p Latino-CMHDD

    2h 9m 1992

    Descargar The Bodyguard (1992) Full HD 1080p Latino-CMHDD. Una cantante famosa que recibe constantes...

    Director: Mick Jackson

    Género: Acción

    Actores: Whitney Houston

descargar Juego de espías (2001) 1080p Latino 1080p 1080p gratis, Juego de espías (2001) 1080p Latino 1080p mega 1 link, Juego de espías (2001) 1080p Latino 1080p pelicula completa, descargar Juego de espías (2001) 1080p Latino 1080p gratis en mega.

Juego de espías (2001) 1080p Latino pelicula full hd, Juego de espías (2001) 1080p Latino mega latino, Juego de espías (2001) 1080p Latino 4k latino, Juego de espías (2001) 1080p Latino pelicula completa, Juego de espías (2001) 1080p Latino descargar gratis, descargar Juego de espías (2001) 1080p Latino pelicula latino, Juego de espías (2001) 1080p Latino 1 link mega, Juego de espías (2001) 1080p Latino 1 link google drive, Juego de espías (2001) 1080p Latino hd 1080p latino.
Comentarios 0