×

¿Problemas para descargar con Mozilla, EDGE? Deshabilita la opción "Abrir vinculos en una pestaña nueva" tal como lo muestra ésta imagen.

Sputnik: Extraño Pasajero (2020) REMUX 1080p Latino

191 vistas

Información de Sputnik: Extraño Pasajero (2020) REMUX 1080p Latino

Datos de la película

  • Calidad: Full 1080p
  • Audio: Se especifica abajo de la Sinopsis
  • Subtitulos: Español Latino SRT- FORZADOS SRT
  • Resolución: 1920x1080p
  • Formato: MKV
  • Codec: H.264
  • Encoder: Melkor
  • Mediainfo: Clic para Mostrar Datos Ver
  • Sputnik Extraño Pasajero (2020) REMUX 1080p Latino.mkv
    Format                      : Matroska
    Format version              : Version 4
    File size                   : 30.7 GiB
    Duration                    : 1 h 53 min
    Overall bit rate mode       : Variable
    Overall bit rate            : 38.6 Mb/s
    Movie name                  : Sputnik (2020) CinemaniaHDD.Net
    Encoded date                : UTC 2021-01-31 23:28:14
    Writing application         : mkvmerge v51.0.0 ('I Wish') 64-bit
    Writing library             : libebml v1.4.0 + libmatroska v1.6.2
    Attachments                 : CINEMANIAHD.png

    Video
    ID                          : 1
    Format                      : AVC
    Format/Info                 : Advanced Video Codec
    Format profile              : High@L4.1
    Format settings             : CABAC / 4 Ref Frames
    Format settings, CABAC      : Yes
    Format settings, Reference  : 4 frames
    Format settings, GOP        : M=3, N=12
    Codec ID                    : V_MPEG4/ISO/AVC
    Duration                    : 1 h 53 min
    Bit rate mode               : Variable
    Bit rate                    : 34.4 Mb/s
    Maximum bit rate            : 36.0 Mb/s
    Width                       : 1 920 pixels
    Height                      : 1 080 pixels
    Display aspect ratio        : 16:9
    Frame rate mode             : Constant
    Frame rate                  : 24.000 FPS
    Color space                 : YUV
    Chroma subsampling          : 4:2:0
    Bit depth                   : 8 bits
    Scan type                   : Progressive
    Bits/(Pixel*Frame)          : 0.692
    Stream size                 : 27.4 GiB (89%)
    Title                       : REMUX HD1080p [CinemaniaHDD]
    Default                     : Yes
    Forced                      : No

    Audio #1
    ID                          : 2
    Format                      : AC-3
    Format/Info                 : Audio Coding 3
    Commercial name             : Dolby Digital
    Codec ID                    : A_AC3
    Duration                    : 1 h 53 min
    Bit rate mode               : Constant
    Bit rate                    : 256 kb/s
    Channel(s)                  : 2 channels
    Channel layout              : L R
    Sampling rate               : 48.0 kHz
    Frame rate                  : 31.250 FPS (1536 SPF)
    Compression mode            : Lossy
    Stream size                 : 208 MiB (1%)
    Title                       : Español Latino [CinemaniaHDD]
    Language                    : Spanish
    Service kind                : Complete Main
    Default                     : Yes
    Forced                      : No

    Audio #2
    ID                          : 3
    Format                      : DTS XLL
    Format/Info                 : Digital Theater Systems
    Commercial name             : DTS-HD Master Audio
    Codec ID                    : A_DTS
    Duration                    : 1 h 53 min
    Bit rate mode               : Variable
    Bit rate                    : 3 888 kb/s
    Channel(s)                  : 6 channels
    Channel layout              : C L R Ls Rs LFE
    Sampling rate               : 48.0 kHz
    Frame rate                  : 93.750 FPS (512 SPF)
    Bit depth                   : 24 bits
    Compression mode            : Lossless
    Stream size                 : 3.09 GiB (10%)
    Title                       : Ruso [CinemaniaHDD]
    Language                    : Russian
    Default                     : No
    Forced                      : No

    Text #1
    ID                          : 4
    Format                      : UTF-8
    Codec ID                    : S_TEXT/UTF8
    Codec ID/Info               : UTF-8 Plain Text
    Duration                    : 1 h 40 min
    Bit rate                    : 0 b/s
    Count of elements           : 12
    Stream size                 : 399 Bytes (0%)
    Title                       : Forzados-SRT [CinemaniaHDD]
    Language                    : Spanish
    Default                     : Yes
    Forced                      : No

    Text #2
    ID                          : 5
    Format                      : UTF-8
    Codec ID                    : S_TEXT/UTF8
    Codec ID/Info               : UTF-8 Plain Text
    Duration                    : 1 h 43 min
    Bit rate                    : 50 b/s
    Count of elements           : 959
    Stream size                 : 38.4 KiB (0%)
    Title                       : Español-SRT [CinemaniaHDD]
    Language                    : Spanish
    Default                     : No
    Forced                      : No

    Text #3
    ID                          : 6
    Format                      : UTF-8
    Codec ID                    : S_TEXT/UTF8
    Codec ID/Info               : UTF-8 Plain Text
    Duration                    : 1 h 47 min
    Bit rate                    : 39 b/s
    Count of elements           : 971
    Stream size                 : 31.1 KiB (0%)
    Title                       : Ingles-SRT [CinemaniaHDD]
    Language                    : English
    Default                     : No
    Forced                      : No

    Menu
    00:00:00.000                : en:Chapter 01
    00:06:16.125                : en:Chapter 02
    00:13:36.250                : en:Chapter 03
    00:19:10.167                : en:Chapter 04
    00:26:32.542                : en:Chapter 05
    00:32:40.625                : en:Chapter 06
    00:40:52.708                : en:Chapter 07
    00:49:06.792                : en:Chapter 08
    00:57:53.833                : en:Chapter 09
    01:05:32.417                : en:Chapter 10
    01:13:20.375                : en:Chapter 11
    01:20:56.417                : en:Chapter 12
    01:27:17.458                : en:Chapter 13
    01:33:48.292                : en:Chapter 14
    01:40:12.333                : en:Chapter 15
    01:44:33.208                : en:Chapter 16

  • Peso: 30.7 GiB

Sinopsis

Descargar Sputnik: Extraño Pasajero (2020) REMUX 1080p Latino. URSS, 1983. El cosmonauta héroe soviético Vladimir Veshnyakov trae una criatura alienígena a la tierra … en su propio cuerpo. En el laboratorio secreto de la ciudad del régimen, la neurofisióloga Tatyana Klimova intenta salvar al astronauta del monstruo, descubriendo que está experimentando un interés más que profesional en su paciente.

Español Latino AC3 2.0 WebDL – Ruso DTS-HD 5.1 Bluray

Ficha técnica

Video trailer de la película

Enlaces de descarga

Rip de Bluray

Descargar Sputnik: Extraño Pasajero (2020) REMUX 1080p Latino




Aportes de DPeliculasHDmega la pass es:dpeliculashdmega.org Aportes de CinemaniaHD la pass es:cinemaniahdd.com
Guardado en : Ciencia ficción , Drama , Remux , Terror

Películas relacionadas

  • Zola (2020) REMUX 1080p Latino

    Zola (2020) REMUX 1080p Latino

    2020
    Zola (2020) REMUX 1080p Latino

    1h 26m 2020

    Descargar Zola (2020) REMUX 1080p Latino. Una camarera accede a acompañar a una bailarina exótica,...

    Director: Sheri Davani

    Género: Comedia

    Actores: Ts Madison

  • Hocus Pocus: Abracadabra (1993) 1080p Latino

    Hocus Pocus: Abracadabra (1993) 1080p Latino

    1993
    Hocus Pocus: Abracadabra (1993) 1080p Latino

    1h 36m 1993

    Descargar Hocus Pocus: Abracadabra (1993) 1080p Latino. Tres brujas del siglo XII son invocadas durante...

    Director: Kenny Ortega

    Género: Comedia

    Actores: Vinessa Shaw

  • Hocus Pocus: Abracadabra (1993) REMUX 1080p Latino

    Hocus Pocus: Abracadabra (1993) REMUX 1080p Latino

    1993
    Hocus Pocus: Abracadabra (1993) REMUX 1080p Latino

    1h 36m 1993

    Descargar Hocus Pocus: Abracadabra (1993) REMUX 1080p Latino. Tres brujas del siglo XII son invocadas...

    Director: Kenny Ortega

    Género: Comedia

    Actores: Vinessa Shaw

descargar Sputnik: Extraño Pasajero (2020) REMUX 1080p Latino Full 1080p 1080p gratis, Sputnik: Extraño Pasajero (2020) REMUX 1080p Latino Full 1080p mega 1 link, Sputnik: Extraño Pasajero (2020) REMUX 1080p Latino Full 1080p pelicula completa, descargar Sputnik: Extraño Pasajero (2020) REMUX 1080p Latino Full 1080p gratis en mega.

Sputnik: Extraño Pasajero (2020) REMUX 1080p Latino pelicula full hd, Sputnik: Extraño Pasajero (2020) REMUX 1080p Latino mega latino, Sputnik: Extraño Pasajero (2020) REMUX 1080p Latino 4k latino, Sputnik: Extraño Pasajero (2020) REMUX 1080p Latino pelicula completa, Sputnik: Extraño Pasajero (2020) REMUX 1080p Latino descargar gratis, descargar Sputnik: Extraño Pasajero (2020) REMUX 1080p Latino pelicula latino, Sputnik: Extraño Pasajero (2020) REMUX 1080p Latino 1 link mega, Sputnik: Extraño Pasajero (2020) REMUX 1080p Latino 1 link google drive, Sputnik: Extraño Pasajero (2020) REMUX 1080p Latino hd 1080p latino.
Comentarios 0