×

¿Problemas para descargar con Mozilla, EDGE? Deshabilita la opción "Abrir vinculos en una pestaña nueva" tal como lo muestra ésta imagen.

Sputnik: Extraño Pasajero (2020) PLACEBO Full HD 1080p Latino

362 vistas

Información de Sputnik: Extraño Pasajero (2020) PLACEBO Full HD 1080p Latino

Datos de la película

  • Calidad: Full 1080p
  • Audio: Se especifica abajo de la Sinopsis
  • Subtitulos: Español Latino SRT- FORZADOS SRT
  • Resolución: 1920x1080p
  • Formato: MKV
  • Codec: H.264
  • Encoder: Melkor
  • Mediainfo: Clic para Mostrar Datos Ver
  • Sputnik Extraño Pasajero (2020) PLACEBO Full HD 1080p Latino.mkv
    Format                      : Matroska
    Format version              : Version 4
    File size                   : 4.82 GiB
    Duration                    : 1 h 53 min
    Overall bit rate            : 6 071 kb/s
    Movie name                  : Sputnik (2020) CinemaniaHDD.Net
    Encoded date                : UTC 2021-02-02 00:17:58
    Writing application         : mkvmerge v51.0.0 ('I Wish') 64-bit
    Writing library             : libebml v1.4.0 + libmatroska v1.6.2
    Attachments                 : CINEMANIAHD.png

    Video
    ID                          : 1
    Format                      : AVC
    Format/Info                 : Advanced Video Codec
    Format profile              : High@L4.1
    Format settings             : CABAC / 4 Ref Frames
    Format settings, CABAC      : Yes
    Format settings, Reference  : 4 frames
    Codec ID                    : V_MPEG4/ISO/AVC
    Duration                    : 1 h 53 min
    Bit rate                    : 4 303 kb/s
    Width                       : 1 920 pixels
    Height                      : 1 080 pixels
    Display aspect ratio        : 16:9
    Frame rate mode             : Constant
    Frame rate                  : 24.000 FPS
    Color space                 : YUV
    Chroma subsampling          : 4:2:0
    Bit depth                   : 8 bits
    Scan type                   : Progressive
    Bits/(Pixel*Frame)          : 0.086
    Stream size                 : 3.42 GiB (71%)
    Title                       : Full HD1080p [CinemaniaHDD]
    Writing library             : x264 core 157 r2935 545de2f
    Encoding settings           : cabac=1 / ref=4 / deblock=1:0:0 / analyse=0x3:0x133 / me=tesa / subme=11 / psy=1 / psy_rd=1.00:0.00 / mixed_ref=1 / me_range=24 / chroma_me=1 / trellis=2 / 8x8dct=1 / cqm=0 / deadzone=21,11 / fast_pskip=0 / chroma_qp_offset=-2 / threads=24 / lookahead_threads=6 / sliced_threads=0 / nr=0 / decimate=1 / interlaced=0 / bluray_compat=0 / constrained_intra=0 / bframes=16 / b_pyramid=2 / b_adapt=2 / b_bias=0 / direct=3 / weightb=1 / open_gop=0 / weightp=2 / keyint=240 / keyint_min=24 / scenecut=40 / intra_refresh=0 / rc_lookahead=60 / rc=crf / mbtree=1 / crf=20.0 / qcomp=0.60 / qpmin=0 / qpmax=69 / qpstep=4 / vbv_maxrate=62500 / vbv_bufsize=78125 / crf_max=0.0 / nal_hrd=none / filler=0 / ip_ratio=1.40 / aq=1:1.00
    Default                     : Yes
    Forced                      : Yes
    Color range                 : Limited
    Color primaries             : BT.709
    Transfer characteristics    : BT.709
    Matrix coefficients         : BT.709

    Audio #1
    ID                          : 2
    Format                      : AC-3
    Format/Info                 : Audio Coding 3
    Commercial name             : Dolby Digital
    Codec ID                    : A_AC3
    Duration                    : 1 h 53 min
    Bit rate mode               : Constant
    Bit rate                    : 256 kb/s
    Channel(s)                  : 2 channels
    Channel layout              : L R
    Sampling rate               : 48.0 kHz
    Frame rate                  : 31.250 FPS (1536 SPF)
    Compression mode            : Lossy
    Stream size                 : 208 MiB (4%)
    Title                       : Español Latino [CinemaniaHDD]
    Language                    : Spanish
    Service kind                : Complete Main
    Default                     : Yes
    Forced                      : Yes

    Audio #2
    ID                          : 3
    Format                      : DTS
    Format/Info                 : Digital Theater Systems
    Codec ID                    : A_DTS
    Duration                    : 1 h 53 min
    Bit rate mode               : Constant
    Bit rate                    : 1 509 kb/s
    Channel(s)                  : 6 channels
    Channel layout              : C L R Ls Rs LFE
    Sampling rate               : 48.0 kHz
    Frame rate                  : 93.750 FPS (512 SPF)
    Bit depth                   : 24 bits
    Compression mode            : Lossy
    Stream size                 : 1.20 GiB (25%)
    Title                       : Ruso [CinemaniaHDD]
    Language                    : Russian
    Default                     : No
    Forced                      : No

    Text #1
    ID                          : 4
    Format                      : UTF-8
    Codec ID                    : S_TEXT/UTF8
    Codec ID/Info               : UTF-8 Plain Text
    Duration                    : 1 h 40 min
    Bit rate                    : 0 b/s
    Count of elements           : 12
    Stream size                 : 399 Bytes (0%)
    Title                       : Forzados-SRT [CinemaniaHDD]
    Language                    : Spanish
    Default                     : Yes
    Forced                      : Yes

    Text #2
    ID                          : 5
    Format                      : UTF-8
    Codec ID                    : S_TEXT/UTF8
    Codec ID/Info               : UTF-8 Plain Text
    Duration                    : 1 h 43 min
    Bit rate                    : 50 b/s
    Count of elements           : 959
    Stream size                 : 38.4 KiB (0%)
    Title                       : Español-SRT [CinemaniaHDD]
    Language                    : Spanish
    Default                     : No
    Forced                      : No

    Text #3
    ID                          : 6
    Format                      : UTF-8
    Codec ID                    : S_TEXT/UTF8
    Codec ID/Info               : UTF-8 Plain Text
    Duration                    : 1 h 47 min
    Bit rate                    : 39 b/s
    Count of elements           : 971
    Stream size                 : 31.1 KiB (0%)
    Title                       : Ingles-SRT [CinemaniaHDD]
    Language                    : English
    Default                     : No
    Forced                      : No

    Menu
    00:00:00.000                : en:Chapter 01
    00:06:16.125                : en:Chapter 02
    00:13:36.250                : en:Chapter 03
    00:19:10.167                : en:Chapter 04
    00:26:32.542                : en:Chapter 05
    00:32:40.625                : en:Chapter 06
    00:40:52.708                : en:Chapter 07
    00:49:06.792                : en:Chapter 08
    00:57:53.833                : en:Chapter 09
    01:05:32.417                : en:Chapter 10
    01:13:20.375                : en:Chapter 11
    01:20:56.417                : en:Chapter 12
    01:27:17.458                : en:Chapter 13
    01:33:48.292                : en:Chapter 14
    01:40:12.333                : en:Chapter 15
    01:44:33.208                : en:Chapter 16

  • Peso: 4.82 GiB

Sinopsis

Descargar Sputnik: Extraño Pasajero (2020) PLACEBO Full HD 1080p Latino. URSS, 1983. El cosmonauta héroe soviético Vladimir Veshnyakov trae una criatura alienígena a la tierra … en su propio cuerpo. En el laboratorio secreto de la ciudad del régimen, la neurofisióloga Tatyana Klimova intenta salvar al astronauta del monstruo, descubriendo que está experimentando un interés más que profesional en su paciente.

Español Latino AC3 2.0 WebDL – Ruso DTS 5.1 Bluray

Ficha técnica

Video trailer de la película

Enlaces de descarga

Rip de Bluray

Descargar Sputnik: Extraño Pasajero (2020) PLACEBO Full HD 1080p Latino




Aportes de DPeliculasHDmega la pass es:dpeliculashdmega.org Aportes de CinemaniaHD la pass es:cinemaniahdd.com

Películas relacionadas

  • Hombre de familia (2000) REMUX 1080p Latino

    Hombre de familia (2000) REMUX 1080p Latino

    2000
    Hombre de familia (2000) REMUX 1080p Latino

    2h 1m 2000

    Descargar Hombre de familia (2000) REMUX 1080p Latino. Jack Campbell es un egocéntrico broker de Wall...

    Director: Robert Schroer

    Género: Comedia

    Actores: Wass Stevens

  • Anon (2018) REMUX 1080p Latino

    Anon (2018) REMUX 1080p Latino

    2018
    Anon (2018) REMUX 1080p Latino

    1h 40m 2018

    Descargar Anon (2018) REMUX 1080p Latino. Anon nos lleva hasta un futuro no muy lejano al estilo soviético,...

    Director: Sarah Campbell

    Género: Ciencia ficción

    Actores: Zion Lee

descargar Sputnik: Extraño Pasajero (2020) PLACEBO Full HD 1080p Latino Full 1080p 1080p gratis, Sputnik: Extraño Pasajero (2020) PLACEBO Full HD 1080p Latino Full 1080p mega 1 link, Sputnik: Extraño Pasajero (2020) PLACEBO Full HD 1080p Latino Full 1080p pelicula completa, descargar Sputnik: Extraño Pasajero (2020) PLACEBO Full HD 1080p Latino Full 1080p gratis en mega.

Sputnik: Extraño Pasajero (2020) PLACEBO Full HD 1080p Latino pelicula full hd, Sputnik: Extraño Pasajero (2020) PLACEBO Full HD 1080p Latino mega latino, Sputnik: Extraño Pasajero (2020) PLACEBO Full HD 1080p Latino 4k latino, Sputnik: Extraño Pasajero (2020) PLACEBO Full HD 1080p Latino pelicula completa, Sputnik: Extraño Pasajero (2020) PLACEBO Full HD 1080p Latino descargar gratis, descargar Sputnik: Extraño Pasajero (2020) PLACEBO Full HD 1080p Latino pelicula latino, Sputnik: Extraño Pasajero (2020) PLACEBO Full HD 1080p Latino 1 link mega, Sputnik: Extraño Pasajero (2020) PLACEBO Full HD 1080p Latino 1 link google drive, Sputnik: Extraño Pasajero (2020) PLACEBO Full HD 1080p Latino hd 1080p latino.
Comentarios 0