×

¿Problemas para descargar con Mozilla, EDGE? Deshabilita la opción "Abrir vinculos en una pestaña nueva" tal como lo muestra ésta imagen.

Spravedlnost (2017) Primera Temporada AMZN WEB-DL 1080p Latino

308 vistas

Información de Spravedlnost (2017) Primera Temporada AMZN WEB-DL 1080p Latino

Datos de la película

  • Calidad: 1080p
  • Audio: Español Latino AC3 2.0
  • Subtitulos: No
  • Resolución: 1920x1080
  • Formato: MKV
  • Codec: H.264
  • Encoder: cinemaniahdd
  • Mediainfo: Clic para Mostrar Datos Ver
  • Absolucion version doblada T01E01 AMZN WEB-DL 1080p Latino [CNMNHDD].mkv
    Format                      : Matroska
    Format version              : Version 4
    File size                   : 3.77 GiB
    Duration                    : 1 h 15 min
    Overall bit rate mode       : Constant
    Overall bit rate            : 7 175 kb/s
    Movie name                  : Absolucion version doblada T01E01 - Episodio 1 [1080p] [CBR]
    Encoded date                : UTC 2022-01-27 01:43:34
    Writing application         : mkvmerge v56.1.0 ('My Friend') 64-bit
    Writing library             : libebml v1.4.2 + libmatroska v1.6.4

    Video
    ID                          : 1
    Format                      : AVC
    Format/Info                 : Advanced Video Codec
    Format profile              : High@L4
    Format settings             : CABAC / 4 Ref Frames
    Format settings, CABAC      : Yes
    Format settings, Reference  : 4 frames
    Codec ID                    : V_MPEG4/ISO/AVC
    Duration                    : 1 h 15 min
    Bit rate mode               : Constant
    Bit rate                    : 6 789 kb/s
    Nominal bit rate            : 10 000 kb/s
    Width                       : 1 920 pixels
    Height                      : 1 080 pixels
    Display aspect ratio        : 16:9
    Frame rate mode             : Constant
    Frame rate                  : 29.970 (30000/1001) FPS
    Color space                 : YUV
    Chroma subsampling          : 4:2:0
    Bit depth                   : 8 bits
    Scan type                   : Progressive
    Bits/(Pixel*Frame)          : 0.109
    Stream size                 : 3.56 GiB (95%)
    Title                       : CinemaniaHDD
    Language                    : English
    Default                     : Yes
    Forced                      : No
    Color range                 : Limited
    Color primaries             : BT.709
    Transfer characteristics    : BT.709
    Matrix coefficients         : BT.709

    Audio
    ID                          : 2
    Format                      : AC-3
    Format/Info                 : Audio Coding 3
    Commercial name             : Dolby Digital
    Codec ID                    : A_AC3
    Duration                    : 1 h 15 min
    Bit rate mode               : Constant
    Bit rate                    : 384 kb/s
    Channel(s)                  : 2 channels
    Channel layout              : L R
    Sampling rate               : 48.0 kHz
    Frame rate                  : 31.250 FPS (1536 SPF)
    Compression mode            : Lossy
    Stream size                 : 206 MiB (5%)
    Title                       : Español latino [CinemaniaHDD]
    Language                    : Spanish
    Service kind                : Complete Main
    Default                     : Yes
    Forced                      : No

     

  • Peso: 3.77 GiB Aprox ---- 11 GiB in 3 Chapters.

Sinopsis

Lily, una joven de veinte años, corre a casa de su padre, Richard, para revelarle que mató a su amante en defensa propia. Su padre, un investigador policial, decide cubrir a su hija; limpia la evidencia y entierra el cuerpo. Cuando el cadaver es encontrado, Richard es asignado al caso…

Ficha técnica

  • Titulo original: Spravedlnost
  • Fecha de lanzamiento: 12-03-2017 (CZ)
  • Género: Crimen, Drama, Series

Video trailer de la película

Enlaces de descarga

Rip de Bluray

Descargar Spravedlnost (2017) Primera Temporada AMZN WEB-DL 1080p Latino




Aportes de DPeliculasHDmega la pass es:dpeliculashdmega.org Aportes de CinemaniaHD la pass es:cinemaniahdd.com
Guardado en : Crimen , Drama , Series

Películas relacionadas

descargar Spravedlnost (2017) Primera Temporada AMZN WEB-DL 1080p Latino 1080p 1080p gratis, Spravedlnost (2017) Primera Temporada AMZN WEB-DL 1080p Latino 1080p mega 1 link, Spravedlnost (2017) Primera Temporada AMZN WEB-DL 1080p Latino 1080p serie completa, descargar Spravedlnost (2017) Primera Temporada AMZN WEB-DL 1080p Latino 1080p gratis en mega.

Spravedlnost (2017) Primera Temporada AMZN WEB-DL 1080p Latino pelicula full hd, Spravedlnost (2017) Primera Temporada AMZN WEB-DL 1080p Latino mega latino, Spravedlnost (2017) Primera Temporada AMZN WEB-DL 1080p Latino 4k latino, Spravedlnost (2017) Primera Temporada AMZN WEB-DL 1080p Latino pelicula completa, Spravedlnost (2017) Primera Temporada AMZN WEB-DL 1080p Latino descargar gratis, descargar Spravedlnost (2017) Primera Temporada AMZN WEB-DL 1080p Latino pelicula latino, Spravedlnost (2017) Primera Temporada AMZN WEB-DL 1080p Latino 1 link mega, Spravedlnost (2017) Primera Temporada AMZN WEB-DL 1080p Latino 1 link google drive, Spravedlnost (2017) Primera Temporada AMZN WEB-DL 1080p Latino hd 1080p latino.
Comentarios 0