×

¿Problemas para descargar con Mozilla, EDGE? Deshabilita la opción "Abrir vinculos en una pestaña nueva" tal como lo muestra ésta imagen.

Splice: Experimento Mortal (2009) 1080p Latino

1.070 vistas

Información de Splice: Experimento Mortal (2009) 1080p Latino

Datos de la película

  • Calidad: 1080p
  • Audio: Español Latino AC3 5.1 DVD - Ingles AC3 5.1 BLURAY
  • Subtitulos: Español Latino SRT - Ingles SRT
  • Resolución: 1920x1080p
  • Formato: MKV
  • Codec: H.264
  • Encoder: CinefiloCool
  • Mediainfo: Clic para Mostrar Datos Ver
  • Splice (2009) 1080p Latino-CMHDD.mkv
    Format                      : Matroska
    Format version              : Version 4
    File size                   : 3.15 GiB
    Duration                    : 1 h 43 min
    Overall bit rate            : 4 333 kb/s
    Movie name                  : Splice (2009) CinemaniaHDD.Net
    Encoded date                : UTC 2020-03-24 03:37:45
    Writing application         : mkvmerge v42.0.0 ('Overtime') 64-bit
    Writing library             : libebml v1.3.10 + libmatroska v1.5.2
    Attachments                 : CINEMANIAHD.png

    Video
    ID                          : 1
    Format                      : AVC
    Format/Info                 : Advanced Video Codec
    Format profile              : High@L4.1
    Format settings             : CABAC / 4 Ref Frames
    Format settings, CABAC      : Yes
    Format settings, ReFrames   : 4 frames
    Codec ID                    : V_MPEG4/ISO/AVC
    Duration                    : 1 h 43 min
    Bit rate                    : 3 500 kb/s
    Width                       : 1 920 pixels
    Height                      : 1 080 pixels
    Display aspect ratio        : 16:9
    Frame rate mode             : Constant
    Frame rate                  : 23.976 (24000/1001) FPS
    Color space                 : YUV
    Chroma subsampling          : 4:2:0
    Bit depth                   : 8 bits
    Scan type                   : Progressive
    Bits/(Pixel*Frame)          : 0.070
    Stream size                 : 2.54 GiB (81%)
    Title                       : HD1080p [Bluray]
    Writing library             : x264 core 157 r2935 545de2f
    Encoding settings           : cabac=1 / ref=4 / deblock=1:-2:-2 / analyse=0x3:0x133 / me=umh / subme=9 / psy=1 / psy_rd=1.00:0.25 / mixed_ref=1 / me_range=16 / chroma_me=1 / trellis=2 / 8x8dct=1 / cqm=0 / deadzone=6,6 / fast_pskip=1 / chroma_qp_offset=-4 / threads=34 / lookahead_threads=2 / sliced_threads=0 / nr=0 / decimate=0 / interlaced=0 / bluray_compat=0 / constrained_intra=0 / bframes=3 / b_pyramid=2 / b_adapt=2 / b_bias=0 / direct=3 / weightb=1 / open_gop=0 / weightp=2 / keyint=240 / keyint_min=24 / scenecut=40 / intra_refresh=0 / rc_lookahead=60 / rc=2pass / mbtree=1 / bitrate=3500 / ratetol=1.0 / qcomp=0.80 / qpmin=0 / qpmax=69 / qpstep=4 / cplxblur=20.0 / qblur=0.5 / vbv_maxrate=62500 / vbv_bufsize=78125 / nal_hrd=none / filler=0 / ip_ratio=1.10 / aq=1:0.50
    Default                     : Yes
    Forced                      : Yes
    Color range                 : Limited
    Color primaries             : BT.709
    Transfer characteristics    : BT.709
    Matrix coefficients         : BT.709

    Audio #1
    ID                          : 2
    Format                      : AC-3
    Format/Info                 : Audio Coding 3
    Commercial name             : Dolby Digital
    Codec ID                    : A_AC3
    Duration                    : 1 h 43 min
    Bit rate mode               : Constant
    Bit rate                    : 384 kb/s
    Channel(s)                  : 6 channels
    Channel layout              : L R C LFE Ls Rs
    Sampling rate               : 48.0 kHz
    Frame rate                  : 31.250 FPS (1536 SPF)
    Bit depth                   : 16 bits
    Compression mode            : Lossy
    Delay relative to video     : 5 ms
    Stream size                 : 285 MiB (9%)
    Title                       : AC3_5.1_DVD_Esp
    Language                    : Spanish
    Service kind                : Complete Main
    Default                     : Yes
    Forced                      : Yes

    Audio #2
    ID                          : 3
    Format                      : AC-3
    Format/Info                 : Audio Coding 3
    Commercial name             : Dolby Digital
    Codec ID                    : A_AC3
    Duration                    : 1 h 43 min
    Bit rate mode               : Constant
    Bit rate                    : 448 kb/s
    Channel(s)                  : 6 channels
    Channel layout              : L R C LFE Ls Rs
    Sampling rate               : 48.0 kHz
    Frame rate                  : 31.250 FPS (1536 SPF)
    Bit depth                   : 16 bits
    Compression mode            : Lossy
    Stream size                 : 333 MiB (10%)
    Title                       : AC3_5.1_Bluray_Eng
    Language                    : English
    Service kind                : Complete Main
    Default                     : No
    Forced                      : No

    Text #1
    ID                          : 4
    Format                      : UTF-8
    Codec ID                    : S_TEXT/UTF8
    Codec ID/Info               : UTF-8 Plain Text
    Duration                    : 1 h 40 min
    Bit rate                    : 0 b/s
    Count of elements           : 22
    Stream size                 : 629 Bytes (0%)
    Title                       : Sub_Forzados
    Language                    : Spanish
    Default                     : Yes
    Forced                      : Yes

    Text #2
    ID                          : 5
    Format                      : UTF-8
    Codec ID                    : S_TEXT/UTF8
    Codec ID/Info               : UTF-8 Plain Text
    Duration                    : 1 h 40 min
    Bit rate                    : 41 b/s
    Count of elements           : 932
    Stream size                 : 30.8 KiB (0%)
    Title                       : Sub_Esp
    Language                    : Spanish
    Default                     : No
    Forced                      : No

    Text #3
    ID                          : 6
    Format                      : UTF-8
    Codec ID                    : S_TEXT/UTF8
    Codec ID/Info               : UTF-8 Plain Text
    Duration                    : 1 h 35 min
    Bit rate                    : 42 b/s
    Count of elements           : 930
    Stream size                 : 30.0 KiB (0%)
    Title                       : Sub_Eng
    Language                    : English
    Default                     : No
    Forced                      : No

    Menu
    00:00:00.000                : en:Chapter 01
    00:06:40.608                : en:Chapter 02
    00:15:13.454                : en:Chapter 03
    00:21:28.203                : en:Chapter 04
    00:32:51.886                : en:Chapter 05
    00:40:26.757                : en:Chapter 06
    00:46:37.669                : en:Chapter 07
    00:56:20.835                : en:Chapter 08
    01:05:07.904                : en:Chapter 09
    01:15:36.156                : en:Chapter 10
    01:25:06.643                : en:Chapter 11
    01:39:42.685                : en:Chapter 12
    01:43:47.930                : en:Chapter 13

  • Peso: 3.15 GiB

Sinopsis

Descargar Splice: Experimento Mortal (2009) 1080p Latino. Clive (Adrien Brody) y Elsa (Sarah Polley) son dos brillantes científicos que, por medio de la ingeniería genética, se dedican a crear variaciones de especies conocidas. Aunque han alcanzado el éxito, su ambición les hará perder el control, cuando, en secreto, decidan llevar sus experimentos más allá de la moral. Combinando ADN humano en sus experimentos genéticos obtendrán un nuevo escalón en el árbol evolutivo actual.

Ficha técnica

Video trailer de la película

Enlaces de descarga

Rip de Bluray

Descargar Splice: Experimento Mortal (2009) 1080p Latino




Aportes de DPeliculasHDmega la pass es:dpeliculashdmega.org Aportes de CinemaniaHD la pass es:cinemaniahdd.com

Películas relacionadas

  • El discurso del Rey (2010) 1080p Latino

    El discurso del Rey (2010) 1080p Latino

    2010
    El discurso del Rey (2010) 1080p Latino

    1h 58m 2010

    Descargar El discurso del Rey (2010) 1080p Latino. El duque de York se convirtió en rey de Gran Bretaña...

    Director: Tom Hooper

    Género: Drama

    Actores: Tony Earnshaw

  • Lucy (2014) REMUX 4K HDR Latino – CMHDD

    Lucy (2014) REMUX 4K HDR Latino – CMHDD

    2014
    Lucy (2014) REMUX 4K HDR Latino – CMHDD

    1h 30m 2014

    Lucy, una joven obligada a ejercer de mula de una nueva y potente droga, adquiere de repente enormes...

    Director: Luc Besson

    Género: Acción

    Actores: Wolfgang Pissors

  • Detective Knight: Redencion (2022) HD 1080p Latino

    Detective Knight: Redencion (2022) HD 1080p Latino

    2022
    Detective Knight: Redencion (2022) HD 1080p Latino

    1h 33m 2022

    Descargar Detective Knight: Redencion (2022) HD 1080p Latino. El detective James Knight se encuentra...

    Director: Edward Drake

    Género: Acción

    Actores: Paul Johansson

descargar Splice: Experimento Mortal (2009) 1080p Latino 1080p 1080p gratis, Splice: Experimento Mortal (2009) 1080p Latino 1080p mega 1 link, Splice: Experimento Mortal (2009) 1080p Latino 1080p pelicula completa, descargar Splice: Experimento Mortal (2009) 1080p Latino 1080p gratis en mega.

Splice: Experimento Mortal (2009) 1080p Latino pelicula full hd, Splice: Experimento Mortal (2009) 1080p Latino mega latino, Splice: Experimento Mortal (2009) 1080p Latino 4k latino, Splice: Experimento Mortal (2009) 1080p Latino pelicula completa, Splice: Experimento Mortal (2009) 1080p Latino descargar gratis, descargar Splice: Experimento Mortal (2009) 1080p Latino pelicula latino, Splice: Experimento Mortal (2009) 1080p Latino 1 link mega, Splice: Experimento Mortal (2009) 1080p Latino 1 link google drive, Splice: Experimento Mortal (2009) 1080p Latino hd 1080p latino.
Comentarios 0