Spirit: El Indomable (2021) WebDL 1080p Latino

40 vistas
1 estrella2 estrellas3 estrellas4 estrellas5 estrellas (Ninguna valoración todavía)
Cargando...

Información de Spirit: El Indomable (2021) WebDL 1080p Latino

Datos de la película

  • Calidad: WEBDL
  • Audio: Español Latino AC3 2.0 iTunes - Ingles AC3 5.1 iTunes
  • Subtitulos: Español Latino SRT- FORZADOS SRT
  • Resolución: 1918x802p
  • Formato: MKV
  • Codec: H.264
  • Encoder: CinemaniaHD
  • Mediainfo: Clic para Mostrar Datos Ver
  • Spirit El Indomable (2021) WebDL 1080p Latino.mkv
    Format                      : Matroska
    Format version              : Version 4
    File size                   : 4.37 GiB
    Duration                    : 1 h 27 min
    Overall bit rate            : 7 134 kb/s
    Movie name                  : Spirit Untamed (2021) CinemaniaHDD.Net
    Encoded date                : UTC 2021-06-24 20:10:56
    Writing application         : mkvmerge v56.1.0 ('My Friend') 64-bit
    Writing library             : libebml v1.4.2 + libmatroska v1.6.4
    Attachments                 : CINEMANIAHD.png

    Video
    ID                          : 1
    Format                      : AVC
    Format/Info                 : Advanced Video Codec
    Format profile              : High@L4
    Format settings             : CABAC / 5 Ref Frames
    Format settings, CABAC      : Yes
    Format settings, Reference  : 5 frames
    Codec ID                    : V_MPEG4/ISO/AVC
    Duration                    : 1 h 27 min
    Bit rate                    : 6 492 kb/s
    Width                       : 1 918 pixels
    Height                      : 802 pixels
    Display aspect ratio        : 2.40:1
    Frame rate mode             : Constant
    Frame rate                  : 23.976 (24000/1001) FPS
    Color space                 : YUV
    Chroma subsampling          : 4:2:0
    Bit depth                   : 8 bits
    Scan type                   : Progressive
    Bits/(Pixel*Frame)          : 0.176
    Stream size                 : 3.98 GiB (91%)
    Title                       : WEB HD1080p [CinemaniaHDD]
    Default                     : Yes
    Forced                      : No
    Color range                 : Limited
    Color primaries             : BT.709
    Transfer characteristics    : BT.709
    Matrix coefficients         : BT.709

    Audio #1
    ID                          : 2
    Format                      : AC-3
    Format/Info                 : Audio Coding 3
    Commercial name             : Dolby Digital
    Codec ID                    : A_AC3
    Duration                    : 1 h 27 min
    Bit rate mode               : Constant
    Bit rate                    : 256 kb/s
    Channel(s)                  : 2 channels
    Channel layout              : L R
    Sampling rate               : 48.0 kHz
    Frame rate                  : 31.250 FPS (1536 SPF)
    Compression mode            : Lossy
    Stream size                 : 161 MiB (4%)
    Title                       : Español Latino [CinemaniaHDD]
    Language                    : Spanish
    Service kind                : Complete Main
    Default                     : Yes
    Forced                      : No

    Audio #2
    ID                          : 3
    Format                      : AC-3
    Format/Info                 : Audio Coding 3
    Commercial name             : Dolby Digital
    Codec ID                    : A_AC3
    Duration                    : 1 h 27 min
    Bit rate mode               : Constant
    Bit rate                    : 384 kb/s
    Channel(s)                  : 6 channels
    Channel layout              : L R C LFE Ls Rs
    Sampling rate               : 48.0 kHz
    Frame rate                  : 31.250 FPS (1536 SPF)
    Compression mode            : Lossy
    Stream size                 : 241 MiB (5%)
    Title                       : Ingles [CinemaniaHDD]
    Language                    : English
    Service kind                : Complete Main
    Default                     : No
    Forced                      : No

    Text #1
    ID                          : 4
    Format                      : UTF-8
    Codec ID                    : S_TEXT/UTF8
    Codec ID/Info               : UTF-8 Plain Text
    Duration                    : 1 h 18 min
    Bit rate                    : 0 b/s
    Count of elements           : 7
    Stream size                 : 183 Bytes (0%)
    Title                       : Forzados-SRT [CinemaniaHDD]
    Language                    : Spanish
    Default                     : Yes
    Forced                      : No

    Text #2
    ID                          : 5
    Format                      : UTF-8
    Codec ID                    : S_TEXT/UTF8
    Codec ID/Info               : UTF-8 Plain Text
    Duration                    : 1 h 26 min
    Bit rate                    : 54 b/s
    Count of elements           : 1177
    Stream size                 : 34.9 KiB (0%)
    Title                       : Español-SRT [CinemaniaHDD]
    Language                    : Spanish
    Default                     : No
    Forced                      : No

    Text #3
    ID                          : 6
    Format                      : UTF-8
    Codec ID                    : S_TEXT/UTF8
    Codec ID/Info               : UTF-8 Plain Text
    Duration                    : 1 h 24 min
    Bit rate                    : 63 b/s
    Count of elements           : 1272
    Stream size                 : 39.2 KiB (0%)
    Title                       : Ingles-SRT [CinemaniaHDD]
    Language                    : English
    Default                     : No
    Forced                      : No

  • Peso: 4.37 GiB

Sinopsis

Descargar Spirit: El Indomable (2021) WebDL 1080p Latino. La vida de Lucky Prescott cambia para siempre cuando se muda de su casa en la gran ciudad a un pequeño pueblo fronterizo en el que entabla amistad con un caballo salvaje llamado Spirit.

Ficha técnica

Video trailer de la película

Enlaces de descarga

Rip de Bluray

Descargar Spirit: El Indomable (2021) WebDL 1080p Latino




Aportes de DPeliculasHDmega la pass es:dpeliculashdmega.org Aportes de CinemaniaHD la pass es:cinemaniahdd.com
Guardado en : Animación , Aventura , Familia , Western

Películas relacionadas

  • La Purga Por Siempre (2021) WebDL 1080p Latino

    La Purga Por Siempre (2021) WebDL 1080p Latino

    2021
    La Purga Por Siempre (2021) WebDL 1080p Latino

    0.0 1h 43m 2021

    Descargar La Purga Por Siempre (2021) WebDL 1080p Latino. Para los miembros de un movimiento clandestino,...

    Director: Vickie M. Hsieh

    Género: Acción

    Actores: Zahn McClarnon

  • Rick and Morty (2021) Temporada 5 AS WEB-DL 1080p Latino

    Rick and Morty (2021) Temporada 5 AS WEB-DL 1080p Latino

    2013
    Rick and Morty (2021) Temporada 5 AS WEB-DL 1080p Latino

    5.0 0h 22m 2013

    Comedia animada que narra las aventuras de un científico loco Rick Sánchez, que regresa después de...

    Director: Justin Roiland

    Género: Action & Adventure

    Actores: Spencer Grammer

  • Siberia (2020) HD 1080p Latino

    Siberia (2020) HD 1080p Latino

    2020
    Siberia (2020) HD 1080p Latino

    0.0 1h 32m 2020

    Descargar Siberia (2020) HD 1080p Latino. Clint es un hombre muerto que vive solo en una tundra helada....

    Director: Natalia Moguel

    Género: Aventura

    Actores: Willem Dafoe

  • Siberia (2020) PLACEBO Full HD 1080p Latino

    Siberia (2020) PLACEBO Full HD 1080p Latino

    2020
    Siberia (2020) PLACEBO Full HD 1080p Latino

    0.0 1h 32m 2020

    Descargar Siberia (2020) PLACEBO Full HD 1080p Latino. Clint es un hombre muerto que vive solo en una...

    Director: Natalia Moguel

    Género: Aventura

    Actores: Willem Dafoe

Spirit: El Indomable (2021) WebDL 1080p Latino pelicula full hd, Spirit: El Indomable (2021) WebDL 1080p Latino mega latino, Spirit: El Indomable (2021) WebDL 1080p Latino 4k latino, Spirit: El Indomable (2021) WebDL 1080p Latino pelicula completa, Spirit: El Indomable (2021) WebDL 1080p Latino descargar gratis, descargar Spirit: El Indomable (2021) WebDL 1080p Latino pelicula latino, Spirit: El Indomable (2021) WebDL 1080p Latino 1 link mega, Spirit: El Indomable (2021) WebDL 1080p Latino 1 link google drive, Spirit: El Indomable (2021) WebDL 1080p Latino hd 1080p latino.
Comentarios 0