×

¿Problemas para descargar con Mozilla, EDGE? Deshabilita la opción "Abrir vinculos en una pestaña nueva" tal como lo muestra ésta imagen.

Spirit: El Indomable (2021) Web-DL 4K UHD HDR Latino

258 vistas

Información de Spirit: El Indomable (2021) Web-DL 4K UHD HDR Latino

Datos de la película

  • Calidad: WEBDL
  • Audio: Se especifica abajo de la Sinopsis
  • Subtitulos: Español Latino SRT- FORZADOS SRT
  • Resolución: 3840x1600p
  • Formato: MKV
  • Codec: HEVC
  • Encoder: Melkor
  • Mediainfo: Clic para Mostrar Datos Ver
  • Spirit El Indomable (2021) WEB UHD HDR Latino.mkv
    Format                      : Matroska
    Format version              : Version 4
    File size                   : 9.70 GiB
    Duration                    : 1 h 27 min
    Overall bit rate            : 15.8 Mb/s
    Movie name                  : Spirit Untamed (2021) CinemaniaHDD.Net
    Encoded date                : UTC 2021-06-24 21:23:55
    Writing application         : mkvmerge v56.1.0 ('My Friend') 64-bit
    Writing library             : libebml v1.4.2 + libmatroska v1.6.4
    Attachments                 : CINEMANIAHD.png

    Video
    ID                          : 1
    Format                      : HEVC
    Format/Info                 : High Efficiency Video Coding
    Format profile              : Main 10@L5@Main
    HDR format                  : SMPTE ST 2094 App 4, Version 1, HDR10+ Profile B compatible
    Codec ID                    : V_MPEGH/ISO/HEVC
    Duration                    : 1 h 27 min
    Bit rate                    : 14.9 Mb/s
    Width                       : 3 840 pixels
    Height                      : 1 600 pixels
    Display aspect ratio        : 2.40:1
    Frame rate mode             : Constant
    Frame rate                  : 23.976 (24000/1001) FPS
    Color space                 : YUV
    Chroma subsampling          : 4:2:0
    Bit depth                   : 10 bits
    Bits/(Pixel*Frame)          : 0.101
    Stream size                 : 9.15 GiB (94%)
    Title                       : Web 2160p HDR [CinemaniaHDD]
    Default                     : Yes
    Forced                      : No
    Color range                 : Limited
    Color primaries             : BT.2020
    Transfer characteristics    : PQ
    Matrix coefficients         : BT.2020 non-constant
    Mastering display color pri : BT.2020
    Mastering display luminance : min: 0.0050 cd/m2, max: 1000 cd/m2
    Maximum Content Light Level : 1033 cd/m2
    Maximum Frame-Average Light : 246 cd/m2

    Audio #1
    ID                          : 2
    Format                      : AC-3
    Format/Info                 : Audio Coding 3
    Commercial name             : Dolby Digital
    Codec ID                    : A_AC3
    Duration                    : 1 h 27 min
    Bit rate mode               : Constant
    Bit rate                    : 256 kb/s
    Channel(s)                  : 2 channels
    Channel layout              : L R
    Sampling rate               : 48.0 kHz
    Frame rate                  : 31.250 FPS (1536 SPF)
    Compression mode            : Lossy
    Delay relative to video     : 26 ms
    Stream size                 : 161 MiB (2%)
    Title                       : Español Latino [CinemaniaHDD]
    Language                    : Spanish
    Service kind                : Complete Main
    Default                     : Yes
    Forced                      : No

    Audio #2
    ID                          : 3
    Format                      : E-AC-3
    Format/Info                 : Enhanced AC-3
    Commercial name             : Dolby Digital Plus
    Codec ID                    : A_EAC3
    Duration                    : 1 h 27 min
    Bit rate mode               : Constant
    Bit rate                    : 640 kb/s
    Channel(s)                  : 6 channels
    Channel layout              : L R C LFE Ls Rs
    Sampling rate               : 48.0 kHz
    Frame rate                  : 31.250 FPS (1536 SPF)
    Compression mode            : Lossy
    Stream size                 : 401 MiB (4%)
    Title                       : Ingles [CinemaniaHDD]
    Language                    : English
    Service kind                : Complete Main
    Default                     : No
    Forced                      : No

    Text #1
    ID                          : 4
    Format                      : UTF-8
    Codec ID                    : S_TEXT/UTF8
    Codec ID/Info               : UTF-8 Plain Text
    Duration                    : 1 h 18 min
    Bit rate                    : 0 b/s
    Count of elements           : 7
    Stream size                 : 183 Bytes (0%)
    Title                       : Forzados-SRT [CinemaniaHDD]
    Language                    : Spanish
    Default                     : Yes
    Forced                      : No

    Text #2
    ID                          : 5
    Format                      : UTF-8
    Codec ID                    : S_TEXT/UTF8
    Codec ID/Info               : UTF-8 Plain Text
    Duration                    : 1 h 26 min
    Bit rate                    : 54 b/s
    Count of elements           : 1177
    Stream size                 : 34.9 KiB (0%)
    Title                       : Español-SRT [CinemaniaHDD]
    Language                    : Spanish
    Default                     : No
    Forced                      : No

    Text #3
    ID                          : 6
    Format                      : UTF-8
    Codec ID                    : S_TEXT/UTF8
    Codec ID/Info               : UTF-8 Plain Text
    Duration                    : 1 h 26 min
    Bit rate                    : 64 b/s
    Count of elements           : 1673
    Stream size                 : 41.0 KiB (0%)
    Title                       : Ingles-SRT [CinemaniaHDD]
    Language                    : English
    Default                     : No
    Forced                      : No

  • Peso: 9.70 GiB

Sinopsis

Descargar Spirit: El Indomable (2021) Web-DL 4K UHD HDR Latino. La vida de Lucky Prescott cambia para siempre cuando se muda de su casa en la gran ciudad a un pequeño pueblo fronterizo en el que entabla amistad con un caballo salvaje llamado Spirit.

Español Latino AC3 2.0 Web – Ingles EAC3 5.1 Web

Ficha técnica

Video trailer de la película

Enlaces de descarga

Rip de Bluray

Descargar Spirit: El Indomable (2021) Web-DL 4K UHD HDR Latino




Aportes de DPeliculasHDmega la pass es:dpeliculashdmega.org Aportes de CinemaniaHD la pass es:cinemaniahdd.com
Guardado en : 4K HDR , 4K UHD , Animación , Aventura , Familia , Western

Películas relacionadas

descargar Spirit: El Indomable (2021) Web-DL 4K UHD HDR Latino WEBDL 1080p gratis, Spirit: El Indomable (2021) Web-DL 4K UHD HDR Latino WEBDL mega 1 link, Spirit: El Indomable (2021) Web-DL 4K UHD HDR Latino WEBDL pelicula completa, descargar Spirit: El Indomable (2021) Web-DL 4K UHD HDR Latino WEBDL gratis en mega.

Spirit: El Indomable (2021) Web-DL 4K UHD HDR Latino pelicula full hd, Spirit: El Indomable (2021) Web-DL 4K UHD HDR Latino mega latino, Spirit: El Indomable (2021) Web-DL 4K UHD HDR Latino 4k latino, Spirit: El Indomable (2021) Web-DL 4K UHD HDR Latino pelicula completa, Spirit: El Indomable (2021) Web-DL 4K UHD HDR Latino descargar gratis, descargar Spirit: El Indomable (2021) Web-DL 4K UHD HDR Latino pelicula latino, Spirit: El Indomable (2021) Web-DL 4K UHD HDR Latino 1 link mega, Spirit: El Indomable (2021) Web-DL 4K UHD HDR Latino 1 link google drive, Spirit: El Indomable (2021) Web-DL 4K UHD HDR Latino hd 1080p latino.
Comentarios 0