×

¿Problemas para descargar con Mozilla, EDGE? Deshabilita la opción "Abrir vinculos en una pestaña nueva" tal como lo muestra ésta imagen.

Espiral: El Juego del Miedo continúa (2021) AMZN WEB-DL 1080p Latino

291 vistas

Información de Espiral: El Juego del Miedo continúa (2021) AMZN WEB-DL 1080p Latino

Datos de la película

  • Calidad: WEBDL
  • Audio: Español Latino AC3 5.1 DVD - Ingles E-AC3 5.1 AMAZON
  • Subtitulos: Español Latino SRT- FORZADOS SRT
  • Resolución: 1920x800p
  • Formato: MKV
  • Codec: H.264
  • Encoder: Melkor
  • Mediainfo: Clic para Mostrar Datos Ver
  • Spiral (2021) AMZN WebDL 1080p Latino.mkv
    Format                      : Matroska
    Format version              : Version 4
    File size                   : 5.95 GiB
    Duration                    : 1 h 33 min
    Overall bit rate            : 9 152 kb/s
    Movie name                  : Spiral From the Book of Saw (2021) CinemaniaHDD.Net
    Encoded date                : UTC 2021-07-08 22:33:08
    Writing application         : mkvmerge v56.1.0 ('My Friend') 64-bit
    Writing library             : libebml v1.4.2 + libmatroska v1.6.4

    Video
    ID                          : 1
    Format                      : AVC
    Format/Info                 : Advanced Video Codec
    Format profile              : High@L4
    Format settings             : CABAC / 4 Ref Frames
    Format settings, CABAC      : Yes
    Format settings, Reference  : 4 frames
    Codec ID                    : V_MPEG4/ISO/AVC
    Duration                    : 1 h 33 min
    Bit rate mode               : Constant
    Bit rate                    : 8 126 kb/s
    Nominal bit rate            : 10 000 kb/s
    Width                       : 1 920 pixels
    Height                      : 800 pixels
    Display aspect ratio        : 2.40:1
    Frame rate mode             : Constant
    Frame rate                  : 23.976 (24000/1001) FPS
    Color space                 : YUV
    Chroma subsampling          : 4:2:0
    Bit depth                   : 8 bits
    Scan type                   : Progressive
    Bits/(Pixel*Frame)          : 0.221
    Stream size                 : 5.28 GiB (89%)
    Title                       : WEB HD1080p [CinemaniaHDD]
    Default                     : Yes
    Forced                      : No
    Color range                 : Limited
    Color primaries             : BT.709
    Transfer characteristics    : BT.709
    Matrix coefficients         : BT.709

    Audio #1
    ID                          : 2
    Format                      : AC-3
    Format/Info                 : Audio Coding 3
    Commercial name             : Dolby Digital
    Codec ID                    : A_AC3
    Duration                    : 1 h 33 min
    Bit rate mode               : Constant
    Bit rate                    : 384 kb/s
    Channel(s)                  : 6 channels
    Channel layout              : L R C LFE Ls Rs
    Sampling rate               : 48.0 kHz
    Frame rate                  : 31.250 FPS (1536 SPF)
    Compression mode            : Lossy
    Stream size                 : 256 MiB (4%)
    Title                       : Español Latino [CinemaniaHDD]
    Language                    : Spanish
    Service kind                : Complete Main
    Default                     : Yes
    Forced                      : No

    Audio #2
    ID                          : 3
    Format                      : E-AC-3
    Format/Info                 : Enhanced AC-3
    Commercial name             : Dolby Digital Plus
    Codec ID                    : A_EAC3
    Duration                    : 1 h 33 min
    Bit rate mode               : Constant
    Bit rate                    : 640 kb/s
    Channel(s)                  : 6 channels
    Channel layout              : L R C LFE Ls Rs
    Sampling rate               : 48.0 kHz
    Frame rate                  : 31.250 FPS (1536 SPF)
    Compression mode            : Lossy
    Stream size                 : 426 MiB (7%)
    Title                       : Ingles [CinemaniaHDD]
    Language                    : English
    Service kind                : Complete Main
    Default                     : No
    Forced                      : No

    Text #1
    ID                          : 4
    Format                      : UTF-8
    Codec ID                    : S_TEXT/UTF8
    Codec ID/Info               : UTF-8 Plain Text
    Duration                    : 1 h 11 min
    Bit rate                    : 1 b/s
    Count of elements           : 16
    Stream size                 : 664 Bytes (0%)
    Title                       : Forzados-SRT [CinemaniaHDD]
    Language                    : Spanish
    Default                     : Yes
    Forced                      : No

    Text #2
    ID                          : 5
    Format                      : UTF-8
    Codec ID                    : S_TEXT/UTF8
    Codec ID/Info               : UTF-8 Plain Text
    Duration                    : 1 h 28 min
    Bit rate                    : 67 b/s
    Count of elements           : 1266
    Stream size                 : 43.4 KiB (0%)
    Title                       : Español-SRT [CinemaniaHDD]
    Language                    : Spanish
    Default                     : No
    Forced                      : No

  • Peso: 5.95 GB

Sinopsis

Descargar Espiral: El Juego del Miedo continúa (2021) AMZN WEB-DL 1080p Latino. Reinicio de la saga ‘Saw’.Trabajando a la sombra de un policía veterano (Samuel L. Jackson), el intrépido detective Ezekiel “Zeke” Banks (Chris Rock) y su compañero novato (Max Minghella) toman las riendas de una investigación relacionada con una serie de asesinatos que albergan ciertos paralelismos con el sangriento pasado de la ciudad. A medida que profundiza en el misterio, Zeke descubre que él mismo se ha convertido en el epicentro del macabro juego del asesino.

Ficha técnica

Video trailer de la película

Enlaces de descarga

Rip de Bluray

Descargar Espiral: El Juego del Miedo continúa (2021) AMZN WEB-DL 1080p Latino




Aportes de DPeliculasHDmega la pass es:dpeliculashdmega.org Aportes de CinemaniaHD la pass es:cinemaniahdd.com
Guardado en : Misterio , Suspenso , Terror

Películas relacionadas

  • Paradise Highway (2022) HD 1080p Latino

    Paradise Highway (2022) HD 1080p Latino

    2022
    Paradise Highway (2022) HD 1080p Latino

    1h 55m 2022

    Descargar Paradise Highway (2022) HD 1080p Latino. Un camionero se ha visto obligado a pasar de contrabando...

    Director: Anna Gutto

    Género: Crimen

    Actores: Xavier Scott Evans

  • Paradise Highway (2022) PLACEBO Full HD 1080p Latino

    Paradise Highway (2022) PLACEBO Full HD 1080p Latino

    2022
    Paradise Highway (2022) PLACEBO Full HD 1080p Latino

    1h 55m 2022

    Descargar Paradise Highway (2022) PLACEBO Full HD 1080p Latino. Un camionero se ha visto obligado a pasar...

    Director: Anna Gutto

    Género: Crimen

    Actores: Xavier Scott Evans

  • Paradise Highway (2022) REMUX 1080p Latino

    Paradise Highway (2022) REMUX 1080p Latino

    2022
    Paradise Highway (2022) REMUX 1080p Latino

    1h 55m 2022

    Descargar Paradise Highway (2022) REMUX 1080p Latino. Un camionero se ha visto obligado a pasar de contrabando...

    Director: Anna Gutto

    Género: Crimen

    Actores: Xavier Scott Evans

descargar Espiral: El Juego del Miedo continúa (2021) AMZN WEB-DL 1080p Latino WEBDL 1080p gratis, Espiral: El Juego del Miedo continúa (2021) AMZN WEB-DL 1080p Latino WEBDL mega 1 link, Espiral: El Juego del Miedo continúa (2021) AMZN WEB-DL 1080p Latino WEBDL pelicula completa, descargar Espiral: El Juego del Miedo continúa (2021) AMZN WEB-DL 1080p Latino WEBDL gratis en mega.

Espiral: El Juego del Miedo continúa (2021) AMZN WEB-DL 1080p Latino pelicula full hd, Espiral: El Juego del Miedo continúa (2021) AMZN WEB-DL 1080p Latino mega latino, Espiral: El Juego del Miedo continúa (2021) AMZN WEB-DL 1080p Latino 4k latino, Espiral: El Juego del Miedo continúa (2021) AMZN WEB-DL 1080p Latino pelicula completa, Espiral: El Juego del Miedo continúa (2021) AMZN WEB-DL 1080p Latino descargar gratis, descargar Espiral: El Juego del Miedo continúa (2021) AMZN WEB-DL 1080p Latino pelicula latino, Espiral: El Juego del Miedo continúa (2021) AMZN WEB-DL 1080p Latino 1 link mega, Espiral: El Juego del Miedo continúa (2021) AMZN WEB-DL 1080p Latino 1 link google drive, Espiral: El Juego del Miedo continúa (2021) AMZN WEB-DL 1080p Latino hd 1080p latino.
Comentarios 0