×

¿Problemas para descargar con Mozilla, EDGE? Deshabilita la opción "Abrir vinculos en una pestaña nueva" tal como lo muestra ésta imagen.

Spiral (2021) REMUX 4K HDR Latino – CMHDD

180 vistas

Información de Spiral (2021) REMUX 4K HDR Latino – CMHDD

Datos de la película

  • Calidad: 4K HDR
  • Audio: Se especifica abajo de la Sinopsis
  • Subtitulos: Español Latino PGS
  • Resolución: 3840x2160p
  • Formato: MKV
  • Codec: HEVC
  • Encoder: Dracarys
  • Mediainfo: Clic para Mostrar Datos Ver
  • Format                      : Matroska
    Format version              : Version 4
    File size                   : 53.4 GiB
    Duration                    : 1 h 33 min
    Overall bit rate mode       : Variable
    Overall bit rate            : 82.1 Mb/s
    Movie name                  : Spiral (2021) REMUX 4K HDR Latino - CMHDD
    Encoded date                : UTC 2021-07-16 01:20:42
    Writing application         : mkvmerge v56.1.0 ('My Friend') 64-bit
    Writing library             : libebml v1.4.2 + libmatroska v1.6.4
    Cover                       : Yes
    Attachments                 : cover.jpg

    Video
    ID                          : 1
    ID in the original source m : 4113 (0x1011)
    Format                      : HEVC
    Format/Info                 : High Efficiency Video Coding
    Format profile              : Main 10@L5.1@High
    HDR format                  : SMPTE ST 2086, HDR10 compatible
    Codec ID                    : V_MPEGH/ISO/HEVC
    Duration                    : 1 h 33 min
    Bit rate                    : 76.5 Mb/s
    Width                       : 3 840 pixels
    Height                      : 2 160 pixels
    Display aspect ratio        : 16:9
    Frame rate mode             : Constant
    Frame rate                  : 23.976 (24000/1001) FPS
    Color space                 : YUV
    Chroma subsampling          : 4:2:0 (Type 2)
    Bit depth                   : 10 bits
    Bits/(Pixel*Frame)          : 0.384
    Stream size                 : 49.7 GiB (93%)
    Default                     : Yes
    Forced                      : No
    Color range                 : Limited
    Color primaries             : BT.2020
    Transfer characteristics    : PQ
    Matrix coefficients         : BT.2020 non-constant
    Mastering display color pri : Display P3
    Mastering display luminance : min: 0.0050 cd/m2, max: 1000 cd/m2
    Maximum Content Light Level : 907 cd/m2
    Maximum Frame-Average Light : 185 cd/m2
    Original source medium      : Blu-ray

    Audio #1
    ID                          : 2
    ID in the original source m : 4352 (0x1100)
    Format                      : MLP FBA 16-ch
    Format/Info                 : Meridian Lossless Packing FBA with 16-channel presentation
    Commercial name             : Dolby TrueHD with Dolby Atmos
    Codec ID                    : A_TRUEHD
    Duration                    : 1 h 33 min
    Bit rate mode               : Variable
    Bit rate                    : 4 299 kb/s
    Maximum bit rate            : 9 057 kb/s
    Channel(s)                  : 8 channels
    Channel layout              : L R C LFE Ls Rs Lb Rb
    Sampling rate               : 48.0 kHz
    Frame rate                  : 1 200.000 FPS (40 SPF)
    Compression mode            : Lossless
    Stream size                 : 2.80 GiB (5%)
    Language                    : English
    Default                     : No
    Forced                      : No
    Original source medium      : Blu-ray
    Number of dynamic objects   : 11
    Bed channel count           : 1 channel
    Bed channel configuration   : LFE

    Audio #2
    ID                          : 3
    ID in the original source m : 4352 (0x1100)
    Format                      : AC-3
    Format/Info                 : Audio Coding 3
    Commercial name             : Dolby Digital
    Codec ID                    : A_AC3
    Duration                    : 1 h 33 min
    Bit rate mode               : Constant
    Bit rate                    : 640 kb/s
    Channel(s)                  : 6 channels
    Channel layout              : L R C LFE Ls Rs
    Sampling rate               : 48.0 kHz
    Frame rate                  : 31.250 FPS (1536 SPF)
    Compression mode            : Lossy
    Stream size                 : 426 MiB (1%)
    Language                    : English
    Service kind                : Complete Main
    Default                     : No
    Forced                      : No
    Original source medium      : Blu-ray

    Audio #3
    ID                          : 4
    ID in the original source m : 4355 (0x1103)
    Format                      : AC-3
    Format/Info                 : Audio Coding 3
    Commercial name             : Dolby Digital
    Codec ID                    : A_AC3
    Duration                    : 1 h 33 min
    Bit rate mode               : Constant
    Bit rate                    : 640 kb/s
    Channel(s)                  : 6 channels
    Channel layout              : L R C LFE Ls Rs
    Sampling rate               : 48.0 kHz
    Frame rate                  : 31.250 FPS (1536 SPF)
    Compression mode            : Lossy
    Stream size                 : 426 MiB (1%)
    Language                    : Spanish
    Service kind                : Complete Main
    Default                     : Yes
    Forced                      : No
    Original source medium      : Blu-ray

    Text
    ID                          : 5
    ID in the original source m : 4770 (0x12A2)
    Format                      : PGS
    Muxing mode                 : zlib
    Codec ID                    : S_HDMV/PGS
    Codec ID/Info               : Picture based subtitle format used on BDs/HD-DVDs
    Duration                    : 1 h 25 min
    Bit rate                    : 34.3 kb/s
    Count of elements           : 2174
    Stream size                 : 21.0 MiB (0%)
    Language                    : Spanish
    Default                     : No
    Forced                      : No
    Original source medium      : Blu-ray

    Menu
    00:00:00.000                : Chapter 01
    00:05:45.428                : Chapter 02
    00:11:25.476                : Chapter 03
    00:16:56.598                : Chapter 04
    00:23:20.190                : Chapter 05
    00:27:47.415                : Chapter 06
    00:34:08.212                : Chapter 07
    00:38:44.655                : Chapter 08
    00:45:15.170                : Chapter 09
    00:49:44.314                : Chapter 10
    00:55:25.488                : Chapter 11
    00:59:14.217                : Chapter 12
    01:06:47.294                : Chapter 13
    01:09:19.071                : Chapter 14
    01:15:18.722                : Chapter 15
    01:20:22.818                : Chapter 16

  • Peso: 53.4 GiB

Sinopsis

El detective descarado Ezekiel «Zeke» Banks, y su compañero novato, se hacen cargo de una espeluznante investigación sobre varios asesinatos espansosos. Zeke, involuntariamente, se vera atrapado en el morboso juego del asesino.

 

Latino: AC3 5.1  –  Ingles: TrueHD 7.1 + AC3 5.1

Ficha técnica

Video trailer de la película

Enlaces de descarga

Rip de Bluray

Descargar Spiral (2021) REMUX 4K HDR Latino – CMHDD


Aportes de DPeliculasHDmega la pass es:dpeliculashdmega.org Aportes de CinemaniaHD la pass es:cinemaniahdd.com
Guardado en : Misterio , Suspenso , Terror

Películas relacionadas

descargar Spiral (2021) REMUX 4K HDR Latino – CMHDD 4K HDR 1080p gratis, Spiral (2021) REMUX 4K HDR Latino – CMHDD 4K HDR mega 1 link, Spiral (2021) REMUX 4K HDR Latino – CMHDD 4K HDR pelicula completa, descargar Spiral (2021) REMUX 4K HDR Latino – CMHDD 4K HDR gratis en mega.

Spiral (2021) REMUX 4K HDR Latino – CMHDD pelicula full hd, Spiral (2021) REMUX 4K HDR Latino – CMHDD mega latino, Spiral (2021) REMUX 4K HDR Latino – CMHDD 4k latino, Spiral (2021) REMUX 4K HDR Latino – CMHDD pelicula completa, Spiral (2021) REMUX 4K HDR Latino – CMHDD descargar gratis, descargar Spiral (2021) REMUX 4K HDR Latino – CMHDD pelicula latino, Spiral (2021) REMUX 4K HDR Latino – CMHDD 1 link mega, Spiral (2021) REMUX 4K HDR Latino – CMHDD 1 link google drive, Spiral (2021) REMUX 4K HDR Latino – CMHDD hd 1080p latino.
Comentarios 0