×

¿Problemas para descargar con Mozilla, EDGE? Deshabilita la opción "Abrir vinculos en una pestaña nueva" tal como lo muestra ésta imagen.

Spinning Out (2020) Temporada 1 NF WEB-DL 1080p latino

1.259 vistas

Información de Spinning Out (2020) Temporada 1 NF WEB-DL 1080p latino

Datos de la película

  • Calidad: WEBDL
  • Audio: Español Latino AC3 5.1 Netflix - Ingles AC3 5.1 Netflix
  • Subtitulos: Español Latino SRT- FORZADOS SRT
  • Resolución: 1920x1080
  • Formato: MKV
  • Codec: H.264
  • Encoder: cinemaniahdd
  • Mediainfo: Clic para Mostrar Datos Ver
  • Spinning Out S01\Spinning Out S01E01 NF WEB-DL 1080p latino.mkv
    Format                      : Matroska
    Format version              : Version 4
    File size                   : 1.51 GiB
    Duration                    : 53 min 49 s
    Overall bit rate mode       : Variable
    Overall bit rate            : 4 026 kb/s
    Movie name                  : Spinning Out S01E01 - CinemaniaHDD.Net
    Encoded date                : UTC 2020-01-01 21:25:06
    Writing application         : mkvmerge v38.0.0 ('The Silent Type') 64-bit
    Writing library             : libebml v1.3.9 + libmatroska v1.5.2

    Video
    ID                          : 1
    Format                      : AVC
    Format/Info                 : Advanced Video Codec
    Format profile              : Main@L4
    Format settings             : CABAC / 3 Ref Frames
    Format settings, CABAC      : Yes
    Format settings, ReFrames   : 3 frames
    Codec ID                    : V_MPEG4/ISO/AVC
    Duration                    : 53 min 49 s
    Bit rate mode               : Variable
    Bit rate                    : 3 256 kb/s
    Maximum bit rate            : 4 980 kb/s
    Width                       : 1 920 pixels
    Height                      : 1 080 pixels
    Display aspect ratio        : 16:9
    Frame rate mode             : Constant
    Frame rate                  : 23.976 (24000/1001) FPS
    Color space                 : YUV
    Chroma subsampling          : 4:2:0
    Bit depth                   : 8 bits
    Scan type                   : Progressive
    Bits/(Pixel*Frame)          : 0.065
    Stream size                 : 1.22 GiB (81%)
    Title                       : CinemaniaHDD
    Default                     : Yes
    Forced                      : No

    Audio #1
    ID                          : 2
    Format                      : AC-3
    Format/Info                 : Audio Coding 3
    Commercial name             : Dolby Digital
    Codec ID                    : A_AC3
    Duration                    : 53 min 49 s
    Bit rate mode               : Constant
    Bit rate                    : 384 kb/s
    Channel(s)                  : 6 channels
    Channel layout              : L R C LFE Ls Rs
    Sampling rate               : 48.0 kHz
    Frame rate                  : 31.250 FPS (1536 SPF)
    Bit depth                   : 16 bits
    Compression mode            : Lossy
    Stream size                 : 148 MiB (10%)
    Title                       : Español latino [CinemaniaHDD]
    Language                    : Spanish
    Service kind                : Complete Main
    Default                     : Yes
    Forced                      : No

    Audio #2
    ID                          : 3
    Format                      : AC-3
    Format/Info                 : Audio Coding 3
    Commercial name             : Dolby Digital
    Codec ID                    : A_AC3
    Duration                    : 53 min 49 s
    Bit rate mode               : Constant
    Bit rate                    : 384 kb/s
    Channel(s)                  : 6 channels
    Channel layout              : L R C LFE Ls Rs
    Sampling rate               : 48.0 kHz
    Frame rate                  : 31.250 FPS (1536 SPF)
    Bit depth                   : 16 bits
    Compression mode            : Lossy
    Stream size                 : 148 MiB (10%)
    Title                       : Inglés [CinemaniaHDD]
    Language                    : English
    Service kind                : Complete Main
    Default                     : No
    Forced                      : No

    Text #1
    ID                          : 4
    Format                      : UTF-8
    Codec ID                    : S_TEXT/UTF8
    Codec ID/Info               : UTF-8 Plain Text
    Duration                    : 52 min 56 s
    Bit rate                    : 0 b/s
    Count of elements           : 8
    Stream size                 : 242 Bytes (0%)
    Title                       : Forzados [CinemaniaHDD]
    Language                    : Spanish
    Default                     : Yes
    Forced                      : Yes

    Text #2
    ID                          : 5
    Format                      : UTF-8
    Codec ID                    : S_TEXT/UTF8
    Codec ID/Info               : UTF-8 Plain Text
    Duration                    : 52 min 56 s
    Bit rate                    : 40 b/s
    Count of elements           : 488
    Stream size                 : 15.8 KiB (0%)
    Title                       : Español latino [CinemaniaHDD]
    Language                    : Spanish
    Default                     : No
    Forced                      : No

     

  • Peso: 1.51 GiB C/U

Sinopsis

Un patinaje artístico sobre las esperanzas olímpicas lucha por equilibrar el amor, la familia y la salud mental frágil mientras un sueño de ganar toma un control vertiginoso.

Ficha técnica

Video trailer de la película

Enlaces de descarga

Rip de Bluray

Descargar Spinning Out (2020) Temporada 1 NF WEB-DL 1080p latino




Aportes de DPeliculasHDmega la pass es:dpeliculashdmega.org Aportes de CinemaniaHD la pass es:cinemaniahdd.com
Guardado en : Drama , Netflix , Series

Películas relacionadas

descargar Spinning Out (2020) Temporada 1 NF WEB-DL 1080p latino WEBDL 1080p gratis, Spinning Out (2020) Temporada 1 NF WEB-DL 1080p latino WEBDL mega 1 link, Spinning Out (2020) Temporada 1 NF WEB-DL 1080p latino WEBDL serie completa, descargar Spinning Out (2020) Temporada 1 NF WEB-DL 1080p latino WEBDL gratis en mega.

Spinning Out (2020) Temporada 1 NF WEB-DL 1080p latino pelicula full hd, Spinning Out (2020) Temporada 1 NF WEB-DL 1080p latino mega latino, Spinning Out (2020) Temporada 1 NF WEB-DL 1080p latino 4k latino, Spinning Out (2020) Temporada 1 NF WEB-DL 1080p latino pelicula completa, Spinning Out (2020) Temporada 1 NF WEB-DL 1080p latino descargar gratis, descargar Spinning Out (2020) Temporada 1 NF WEB-DL 1080p latino pelicula latino, Spinning Out (2020) Temporada 1 NF WEB-DL 1080p latino 1 link mega, Spinning Out (2020) Temporada 1 NF WEB-DL 1080p latino 1 link google drive, Spinning Out (2020) Temporada 1 NF WEB-DL 1080p latino hd 1080p latino.
Comentarios 0