Spin Out (2016) WEB-DL 1080p Latino

875 vistas
1 estrella2 estrellas3 estrellas4 estrellas5 estrellas (Ninguna valoración todavía)
Cargando…

Información de Spin Out (2016) WEB-DL 1080p Latino

Datos de la película

  • Calidad: WEBDL
  • Audio: Español Latino AC3 2.0 Capturado - Ingles AC3 5.1 WEBDL
  • Subtitulos: Español Latino SRT
  • Resolución: 1920X798p
  • Formato: MKV
  • Codec: H.264
  • Encoder: CinemaniaHD
  • Mediainfo: Clic para Mostrar Datos Ver
  • Format                                   : Matroska
    Format version                           : Version 4 / Version 2
    File size                                : 3.32 GiB
    Duration                                 : 1 h 32 min
    Overall bit rate                         : 5 127 kb/s
    Movie name                               : CinemaniaHDD.com
    Encoded date                             : UTC 2018-01-19 03:36:27
    Writing application                      : mkvmerge v15.0.0 ('Duel with the Devil') 64-bit
    Writing library                          : libebml v1.3.5 + libmatroska v1.4.5

    Video
    ID                                       : 1
    Format                                   : AVC
    Format/Info                              : Advanced Video Codec
    Format profile                           : [email protected]
    Format settings                          : CABAC / 5 Ref Frames
    Format settings, CABAC                   : Yes
    Format settings, RefFrames               : 5 frames
    Codec ID                                 : V_MPEG4/ISO/AVC
    Duration                                 : 1 h 32 min
    Bit rate                                 : 4 553 kb/s
    Width                                    :1 920 pixels
    Height                                   : 798 pixels
    Display aspect ratio                     : 2.40:1
    Frame rate mode                          : Constant
    Frame rate                               : 23.976 (23976/1000) FPS
    Color space                              : YUV
    Chroma subsampling                       : 4:2:0
    Bit depth                                : 8 bits
    Scan type                                : Progressive
    Bits/(Pixel*Frame)                       : 0.124
    Stream size                              : 2.94 GiB (89%)
    Title                                    : Spin Out (2016) WEB-DL 1080p Latino
    Language                                 : English
    Default                                  : Yes
    Forced                                   : No
    Color range                              : Limited
    Color primaries                          : BT.709
    Transfer characteristics                 : BT.709
    Matrix coefficients                      : BT.709

    Audio #1
    ID                                       : 2
    Format                                   : AC-3
    Format/Info                              : Audio Coding 3
    Format settings, Endianness              : Big
    Codec ID                                 : A_AC3
    Duration                                 : 1 h 32 min
    Bit rate mode                            : Constant
    Bit rate                                 : 192 kb/s
    Channel(s)                               : 2 channels
    Channel positions                        : Front: L R
    Sampling rate                            : 48.0 kHz
    Frame rate                               : 31.250 FPS (1536 SPF)
    Bit depth                                : 16 bits
    Compression mode                         : Lossy
    Delay relative to video                  : 2 s 100 ms
    Stream size                              : 127 MiB (4%)
    Language                                 : Spanish
    Service kind                             : Complete Main
    Default                                  : Yes
    Forced                                   : No

    Audio #2
    ID                                       : 3
    Format                                   : AC-3
    Format/Info                              : Audio Coding 3
    Format settings, Endianness              : Big
    Codec ID                                 : A_AC3
    Duration                                 : 1 h 32 min
    Bit rate mode                            : Constant
    Bit rate                                 : 384 kb/s
    Channel(s)                               : 6 channels
    Channel positions                        : Front: L C R, Side: L R, LFE
    Sampling rate                            : 48.0 kHz
    Frame rate                               : 31.250 FPS (1536 SPF)
    Bit depth                                : 16 bits
    Compression mode                         : Lossy
    Stream size                              : 254 MiB (7%)
    Language                                 : English
    Service kind                             : Complete Main
    Default                                  : No
    Forced                                   : No

    Text #1
    ID                                       : 4
    Format                                   : UTF-8
    Codec ID                                 : S_TEXT/UTF8
    Codec ID/Info                            : UTF-8 Plain Text
    Duration                                 : 1 h 24 min
    Bit rate                                 : 51 b/s
    Count of elements                        : 1148
    Stream size                              : 32.1 KiB (0%)
    Language                                 : Spanish
    Default                                  : No
    Forced                                   : No

    Text #2
    ID                                       : 5
    Format                                   : UTF-8
    Codec ID                                 : S_TEXT/UTF8
    Codec ID/Info                            : UTF-8 Plain Text
    Duration                                 : 1 h 24 min
    Bit rate                                 : 52 b/s
    Count of elements                        : 1143
    Stream size                              : 32.6 KiB (0%)
    Language                                 : English
    Default                                  : No
    Forced                                   : No

    Menu
    00:00:00.000                             : en:1
    00:06:30.640                             : en:2
    00:10:30.129                             : en:3
    00:16:33.909                             : en:4
    00:21:19.235                             : en:5
    00:26:05.646                             : en:6
    00:29:25.429                             : en:7
    00:34:05.667                             : en:8
    00:39:39.542                             : en:9
    00:43:57.299                             : en:10
    00:48:42.751                             : en:11
    00:55:48.259                             : en:12
    01:03:56.330                             : en:13
    01:12:07.487                             : en:14
    01:17:26.222                             : en:15
    01:26:06.033                             : en:16

     

  • Peso: 3.32 GiB

Sinopsis

Billy y Lucy han crecido juntas en una pequeña y estrecha aldea rural australiana, donde forman uno de los equipos de conducción de Ute más formidables de la ciudad. Cuando Billy toma un truco de coche de riesgo demasiado lejos, Lucy declara que se está mudando a la ciudad – enviando a Billy en un giro. En medio del caos de la fiesta anual de la ciudad “solteros y solteronas”, Billy sólo tiene una noche para despertar a sus verdaderos sentimientos por su mejor amigo – o perderla para siempre. Spin Out es un romance de comedia fresco y conmovedor para los jóvenes y los jóvenes de corazón.

Ficha técnica

Video trailer de la película

Enlaces de descarga

Rip de Bluray

Descargar Spin Out (2016) WEB-DL 1080p Latino




Aportes de DPeliculasHDmega la pass es:dpeliculashdmega.org Aportes de CinemaniaHD la pass es:cinemaniahdd.com
Guardado en : Comedia , Romance

Películas relacionadas

  • El Grinch (2018) WEB-DL 1080p Latino

    2018
    El Grinch (2018) WEB-DL 1080p Latino

    0.0 1h 30m 2018

    Cada año, en Navidad, los lugareños perturban su pacífica soledad con celebraciones cada vez más...

    Director: Yarrow Cheney

    Género: Animación

    Actores: Tucker Chandler

  • The Sisters Brothers (2018) 1080p Subtitulado

    2018
    The Sisters Brothers (2018) 1080p Subtitulado

    4.0 2h 2m 2018

    Descargar The Sisters Brothers (2018) 1080p Subtitulado, Mega, Google Drive, Torrent. Narra la historia...

    Director: Jean-Baptiste Pouilloux

    Género: Comedia

    Actores: Zac Abbott

  • Once Upon a Deadpool (2018) Full 1080p Latino

    2018
    Once Upon a Deadpool (2018) Full 1080p Latino

    5.0 1h 57m 2018

    Deadpool (Ryan Reynolds) le cuenta al actor Fred Savage (el niño de "La Princesa Prometida") algunas...

    Director: David Leitch

    Género: Acción

    Actores: Zazie Beetz

  • Campeones (2018) HD 1080p Español

    2018
    Campeones (2018) HD 1080p Español

    0.0 2h 4m 2018

    Descargar Campeones (2018) HD 1080p Español, Mega, Google Drive, Torrent. Marco, un entrenador profesional...

    Director: Javier Fesser

    Género: Castellano

    Actores: Yiyo Alonso

Comentarios 2
  • snj - 19 enero, 2018

    Hola
    el audio latino no calza con el Bluray?

    • dpelis - 21 enero, 2018

      no hay rip bluray