×

¿Problemas para descargar con Mozilla, EDGE? Deshabilita la opción "Abrir vinculos en una pestaña nueva" tal como lo muestra ésta imagen.

Espías a Escondidas (2019) Full HD 1080p Latino

4.586 vistas

Información de Espías a Escondidas (2019) Full HD 1080p Latino

Datos de la película

  • Calidad: Full 1080p
  • Audio: Español Latino AC3 5.1 BLURAY - Ingles DTS 5.1 BLURAY
  • Subtitulos: Español Latino PGS - Ingles PGS
  • Resolución: 1920x1080p
  • Formato: MKV
  • Codec: H.264
  • Encoder: CinefiloCool
  • Mediainfo: Clic para Mostrar Datos Ver
  • Espias A Escondidas (2019) Full HD 1080p Latino-CMHDD.mkv
    Format                      : Matroska
    Format version              : Version 4
    File size                   : 4.24 GiB
    Duration                    : 1 h 41 min
    Overall bit rate            : 5 966 kb/s
    Movie name                  : Espias A Escondidas (2019) CinemaniaHDD.Net
    Encoded date                : UTC 2020-03-03 03:35:50
    Writing application         : mkvmerge v42.0.0 ('Overtime') 64-bit
    Writing library             : libebml v1.3.10 + libmatroska v1.5.2
    Attachments                 : CINEMANIAHD.png

    Video
    ID                          : 1
    Format                      : AVC
    Format/Info                 : Advanced Video Codec
    Format profile              : High@L4.1
    Format settings             : CABAC / 4 Ref Frames
    Format settings, CABAC      : Yes
    Format settings, ReFrames   : 4 frames
    Codec ID                    : V_MPEG4/ISO/AVC
    Duration                    : 1 h 41 min
    Bit rate                    : 3 981 kb/s
    Width                       : 1 920 pixels
    Height                      : 1 080 pixels
    Display aspect ratio        : 16:9
    Frame rate mode             : Constant
    Frame rate                  : 23.976 (24000/1001) FPS
    Color space                 : YUV
    Chroma subsampling          : 4:2:0
    Bit depth                   : 8 bits
    Scan type                   : Progressive
    Bits/(Pixel*Frame)          : 0.080
    Stream size                 : 2.83 GiB (67%)
    Title                       : Full HD1080p [Bluray]
    Writing library             : x264 core 157 r2935 545de2f
    Encoding settings           : cabac=1 / ref=4 / deblock=1:1:1 / analyse=0x3:0x133 / me=tesa / subme=11 / psy=1 / psy_rd=0.40:0.00 / mixed_ref=1 / me_range=24 / chroma_me=1 / trellis=2 / 8x8dct=1 / cqm=0 / deadzone=21,11 / fast_pskip=0 / chroma_qp_offset=-2 / threads=34 / lookahead_threads=8 / sliced_threads=0 / nr=0 / decimate=1 / interlaced=0 / bluray_compat=0 / constrained_intra=0 / bframes=16 / b_pyramid=2 / b_adapt=2 / b_bias=0 / direct=3 / weightb=1 / open_gop=0 / weightp=2 / keyint=240 / keyint_min=24 / scenecut=40 / intra_refresh=0 / rc_lookahead=60 / rc=crf / mbtree=1 / crf=19.0 / qcomp=0.60 / qpmin=0 / qpmax=69 / qpstep=4 / vbv_maxrate=62500 / vbv_bufsize=78125 / crf_max=0.0 / nal_hrd=none / filler=0 / ip_ratio=1.40 / aq=1:0.60
    Default                     : Yes
    Forced                      : Yes
    Color range                 : Limited
    Color primaries             : BT.709
    Transfer characteristics    : BT.709
    Matrix coefficients         : BT.709

    Audio #1
    ID                          : 2
    Format                      : AC-3
    Format/Info                 : Audio Coding 3
    Commercial name             : Dolby Digital
    Codec ID                    : A_AC3
    Duration                    : 1 h 41 min
    Bit rate mode               : Constant
    Bit rate                    : 448 kb/s
    Channel(s)                  : 6 channels
    Channel layout              : L R C LFE Ls Rs
    Sampling rate               : 48.0 kHz
    Frame rate                  : 31.250 FPS (1536 SPF)
    Bit depth                   : 16 bits
    Compression mode            : Lossy
    Stream size                 : 326 MiB (8%)
    Title                       : AC3_5.1_Bluray_Esp
    Language                    : Spanish
    Service kind                : Complete Main
    Default                     : Yes
    Forced                      : Yes

    Audio #2
    ID                          : 3
    Format                      : DTS
    Format/Info                 : Digital Theater Systems
    Codec ID                    : A_DTS
    Duration                    : 1 h 41 min
    Bit rate mode               : Constant
    Bit rate                    : 1 509 kb/s
    Channel(s)                  : 6 channels
    Channel layout              : C L R Ls Rs LFE
    Sampling rate               : 48.0 kHz
    Frame rate                  : 93.750 FPS (512 SPF)
    Bit depth                   : 24 bits
    Compression mode            : Lossy
    Stream size                 : 1.07 GiB (25%)
    Title                       : DTS_5.1_Bluray_Eng
    Language                    : English
    Default                     : No
    Forced                      : No

    Text #1
    ID                          : 4
    Format                      : PGS
    Muxing mode                 : zlib
    Codec ID                    : S_HDMV/PGS
    Codec ID/Info               : Picture based subtitle format used on BDs/HD-DVDs
    Duration                    : 1 h 37 min
    Bit rate                    : 949 b/s
    Count of elements           : 82
    Stream size                 : 679 KiB (0%)
    Title                       : Sub_Forzados [PGS]
    Language                    : Spanish
    Default                     : Yes
    Forced                      : Yes

    Text #2
    ID                          : 5
    Format                      : PGS
    Muxing mode                 : zlib
    Codec ID                    : S_HDMV/PGS
    Codec ID/Info               : Picture based subtitle format used on BDs/HD-DVDs
    Duration                    : 1 h 40 min
    Bit rate                    : 32.9 kb/s
    Count of elements           : 2722
    Stream size                 : 23.6 MiB (1%)
    Title                       : Sub_Esp [PGS]
    Language                    : Spanish
    Default                     : No
    Forced                      : No

    Text #3
    ID                          : 6
    Format                      : PGS
    Muxing mode                 : zlib
    Codec ID                    : S_HDMV/PGS
    Codec ID/Info               : Picture based subtitle format used on BDs/HD-DVDs
    Duration                    : 1 h 41 min
    Bit rate                    : 46.8 kb/s
    Count of elements           : 3822
    Stream size                 : 33.9 MiB (1%)
    Title                       : Sub_Eng [PGS]
    Language                    : English
    Default                     : No
    Forced                      : No

    Text #4
    ID                          : 7
    Format                      : UTF-8
    Codec ID                    : S_TEXT/UTF8
    Codec ID/Info               : UTF-8 Plain Text
    Duration                    : 1 h 37 min
    Bit rate                    : 1 b/s
    Count of elements           : 41
    Stream size                 : 869 Bytes (0%)
    Title                       : Sub_Forzados
    Language                    : Spanish
    Default                     : No
    Forced                      : No

    Text #5
    ID                          : 8
    Format                      : UTF-8
    Codec ID                    : S_TEXT/UTF8
    Codec ID/Info               : UTF-8 Plain Text
    Duration                    : 1 h 40 min
    Bit rate                    : 52 b/s
    Count of elements           : 1359
    Stream size                 : 38.5 KiB (0%)
    Title                       : Sub_Esp
    Language                    : Spanish
    Default                     : No
    Forced                      : No

    Menu
    00:00:00.000                : en:Chapter 01
    00:04:09.499                : en:Chapter 02
    00:06:54.497                : en:Chapter 03
    00:11:54.422                : en:Chapter 04
    00:15:31.013                : en:Chapter 05
    00:20:35.484                : en:Chapter 06
    00:23:20.857                : en:Chapter 07
    00:26:42.434                : en:Chapter 08
    00:30:59.524                : en:Chapter 09
    00:36:06.581                : en:Chapter 10
    00:41:34.950                : en:Chapter 11
    00:45:41.947                : en:Chapter 12
    00:49:57.786                : en:Chapter 13
    00:53:58.902                : en:Chapter 14
    00:56:34.307                : en:Chapter 15
    01:00:06.769                : en:Chapter 16
    01:08:46.831                : en:Chapter 17
    01:12:51.784                : en:Chapter 18
    01:17:34.566                : en:Chapter 19
    01:20:18.939                : en:Chapter 20
    01:23:19.077                : en:Chapter 21
    01:26:05.243                : en:Chapter 22
    01:29:47.173                : en:Chapter 23
    01:33:08.874                : en:Chapter 24

  • Peso: 4.24 GiB

Sinopsis

Descargar Espías a Escondidas (2019) Full HD 1080p Latino. Puede decirse que el superespía Lance Sterling y el científico Walter Beckett no tienen nada que ver entre sí: Lance es relajado, educado y caballeroso. Walter lo opuesto. Lo que le falta a Walter de habilidades sociales lo compensa con una dosis extra de ingenio e inventiva, con los que crea fascinantes artilugios que Lance usa en sus épicas misiones. Pero cuando los acontecimientos sorprenden con un giro inesperado, Walter y Lance tendrán que confiar el uno en el otro… Y todo el mundo estará en peligro.

Ficha técnica

Video trailer de la película

Enlaces de descarga

Rip de Bluray

Descargar Espías a Escondidas (2019) Full HD 1080p Latino




Aportes de DPeliculasHDmega la pass es:dpeliculashdmega.org Aportes de CinemaniaHD la pass es:cinemaniahdd.com

Películas relacionadas

descargar Espías a Escondidas (2019) Full HD 1080p Latino Full 1080p 1080p gratis, Espías a Escondidas (2019) Full HD 1080p Latino Full 1080p mega 1 link, Espías a Escondidas (2019) Full HD 1080p Latino Full 1080p pelicula completa, descargar Espías a Escondidas (2019) Full HD 1080p Latino Full 1080p gratis en mega.

Espías a Escondidas (2019) Full HD 1080p Latino pelicula full hd, Espías a Escondidas (2019) Full HD 1080p Latino mega latino, Espías a Escondidas (2019) Full HD 1080p Latino 4k latino, Espías a Escondidas (2019) Full HD 1080p Latino pelicula completa, Espías a Escondidas (2019) Full HD 1080p Latino descargar gratis, descargar Espías a Escondidas (2019) Full HD 1080p Latino pelicula latino, Espías a Escondidas (2019) Full HD 1080p Latino 1 link mega, Espías a Escondidas (2019) Full HD 1080p Latino 1 link google drive, Espías a Escondidas (2019) Full HD 1080p Latino hd 1080p latino.
Comentarios 0