×

¿Problemas para descargar con Mozilla, EDGE? Deshabilita la opción "Abrir vinculos en una pestaña nueva" tal como lo muestra ésta imagen.

Spider-Man: Un nuevo universo (2018) 3D OU Full 1080p Latino

1.934 vistas

Información de Spider-Man: Un nuevo universo (2018) 3D OU Full 1080p Latino

Datos de la película

  • Calidad: Full 1080p
  • Audio: Español Latino AC3 5.1 BLURAY - Ingles DTS 5.1 BLURAY
  • Subtitulos: Español Latino PGS - Ingles PGS
  • Resolución: 1920x1080p
  • Formato: MKV
  • Codec: H.264
  • Encoder: Chesse92
  • Mediainfo: Clic para Mostrar Datos Ver
  • Spider-Man Into The Spider Verse (2018) 3D OU Full 1080p Latino(PLACEBO).mkv
    Format                      : Matroska
    Format version              : Version 4
    File size                   : 7.50 GiB
    Duration                    : 1 h 56 min
    Overall bit rate            : 9 194 kb/s
    Movie name                  : Spider-Man.Into.the.Spider.Verse.2018.1080p.3D.BluRay.Half-OU.x264.DTS-HD.MA.7.1-FGT
    Encoded date                : UTC 2019-03-19 00:20:33
    Writing application         : mkvmerge v30.1.0 ('Forever And More') 64-bit
    Writing library             : libebml v1.3.6 + libmatroska v1.4.9 / Lavf58.20.100

    Video
    ID                          : 1
    Format                      : AVC
    Format/Info                 : Advanced Video Codec
    Format profile              : High@L4.1
    Format settings             : CABAC / 4 Ref Frames
    Format settings, CABAC      : Yes
    Format settings, ReFrames   : 4 frames
    Codec ID                    : V_MPEG4/ISO/AVC
    Duration                    : 1 h 56 min
    Bit rate                    : 7 022 kb/s
    Width                       : 1 920 pixels
    Height                      : 1 080 pixels
    Display aspect ratio        : 16:9
    Frame rate mode             : Constant
    Frame rate                  : 23.976 (24000/1001) FPS
    Color space                 : YUV
    Chroma subsampling          : 4:2:0
    Bit depth                   : 8 bits
    Scan type                   : Progressive
    Bits/(Pixel*Frame)          : 0.141
    Stream size                 : 5.73 GiB (76%)
    Writing library             : x264 core 157 r2935 545de2f
    Encoding settings           : cabac=1 / ref=4 / deblock=1:0:0 / analyse=0x3:0x133 / me=tesa / subme=11 / psy=1 / psy_rd=1.00:0.00 / mixed_ref=1 / me_range=24 / chroma_me=1 / trellis=2 / 8x8dct=1 / cqm=0 / deadzone=21,11 / fast_pskip=0 / chroma_qp_offset=-2 / threads=34 / lookahead_threads=8 / sliced_threads=0 / nr=0 / decimate=1 / interlaced=0 / bluray_compat=0 / constrained_intra=0 / bframes=16 / b_pyramid=2 / b_adapt=2 / b_bias=0 / direct=3 / weightb=1 / open_gop=0 / weightp=2 / keyint=240 / keyint_min=24 / scenecut=40 / intra_refresh=0 / rc_lookahead=60 / rc=crf / mbtree=1 / crf=20.0 / qcomp=0.60 / qpmin=0 / qpmax=69 / qpstep=4 / vbv_maxrate=62500 / vbv_bufsize=78125 / crf_max=0.0 / nal_hrd=none / filler=0 / ip_ratio=1.40 / aq=1:1.00
    Default                     : Yes
    Forced                      : No
    Color range                 : Limited
    Color primaries             : BT.709
    Transfer characteristics    : BT.709
    Matrix coefficients         : BT.709

    Audio #1
    ID                          : 2
    Format                      : AC-3
    Format/Info                 : Audio Coding 3
    Commercial name             : Dolby Digital
    Codec ID                    : A_AC3
    Duration                    : 1 h 56 min
    Bit rate mode               : Constant
    Bit rate                    : 640 kb/s
    Channel(s)                  : 6 channels
    Channel layout              : L R C LFE Ls Rs
    Sampling rate               : 48.0 kHz
    Frame rate                  : 31.250 FPS (1536 SPF)
    Bit depth                   : 16 bits
    Compression mode            : Lossy
    Stream size                 : 535 MiB (7%)
    Language                    : Spanish
    Service kind                : Complete Main
    Default                     : Yes
    Forced                      : No

    Audio #2
    ID                          : 3
    Format                      : DTS
    Format/Info                 : Digital Theater Systems
    Codec ID                    : A_DTS
    Duration                    : 1 h 56 min
    Bit rate mode               : Constant
    Bit rate                    : 1 509 kb/s
    Channel(s)                  : 6 channels
    Channel layout              : C L R Ls Rs LFE
    Sampling rate               : 48.0 kHz
    Frame rate                  : 93.750 FPS (512 SPF)
    Bit depth                   : 16 bits
    Compression mode            : Lossy
    Stream size                 : 1.23 GiB (16%)
    Title                       : Surround
    Language                    : English
    Default                     : No
    Forced                      : No

    Text #1
    ID                          : 4
    Format                      : PGS
    Muxing mode                 : zlib
    Codec ID                    : S_HDMV/PGS
    Codec ID/Info               : Picture based subtitle format used on BDs/HD-DVDs
    Duration                    : 1 h 55 min
    Bit rate                    : 37.8 kb/s
    Count of elements           : 2754
    Stream size                 : 31.3 MiB (0%)
    Language                    : Spanish
    Default                     : No
    Forced                      : No

    Text #2
    ID                          : 5
    Format                      : PGS
    Muxing mode                 : zlib
    Codec ID                    : S_HDMV/PGS
    Codec ID/Info               : Picture based subtitle format used on BDs/HD-DVDs
    Duration                    : 1 h 55 min
    Bit rate                    : 38.3 kb/s
    Count of elements           : 2744
    Stream size                 : 31.6 MiB (0%)
    Language                    : English
    Default                     : No
    Forced                      : No

    Menu
    00:00:00.000                : :Chapter 1
    00:09:03.543                : :Chapter 2
    00:14:04.719                : :Chapter 3
    00:18:51.714                : :Chapter 4
    00:29:39.069                : :Chapter 5
    00:34:14.427                : :Chapter 6
    00:40:34.432                : :Chapter 7
    00:44:22.827                : :Chapter 8
    00:48:06.884                : :Chapter 9
    00:58:45.856                : :Chapter 10
    01:06:04.878                : :Chapter 11
    01:09:55.483                : :Chapter 12
    01:19:59.795                : :Chapter 13
    01:24:54.715                : :Chapter 14
    01:33:33.191                : :Chapter 15
    01:55:26.670                : :Chapter 16

  • Peso: 7.50 GiB

Sinopsis

Descargar Spider-Man: Un nuevo universo (2018) 3D OU Full 1080p Latino, Mega, Google Drive. En un universo paralelo donde Peter Parker ha muerto, un joven de secundaria llamado Miles Morales es el nuevo Spider-Man. Sin embargo, cuando el líder mafioso Wilson Fisk (a.k.a Kingpin) construye el «Super Colisionador» trae a una versión alternativa de Peter Parker que tratará de enseñarle a Miles como ser un mejor Spider-Man. Pero no será el único Spider Man en entrar a este universo, 4 versiones alternas de Spidey aparecerán y buscarán regresar a su universo antes de que toda la realidad colapse

Ficha técnica

Video trailer de la película

Enlaces de descarga

Rip de Bluray

Descargar Spider-Man: Un nuevo universo (2018) 3D OU Full 1080p Latino




Aportes de DPeliculasHDmega la pass es:dpeliculashdmega.org Aportes de CinemaniaHD la pass es:cinemaniahdd.com

Películas relacionadas

descargar Spider-Man: Un nuevo universo (2018) 3D OU Full 1080p Latino Full 1080p 1080p gratis, Spider-Man: Un nuevo universo (2018) 3D OU Full 1080p Latino Full 1080p mega 1 link, Spider-Man: Un nuevo universo (2018) 3D OU Full 1080p Latino Full 1080p pelicula completa, descargar Spider-Man: Un nuevo universo (2018) 3D OU Full 1080p Latino Full 1080p gratis en mega.

Spider-Man: Un nuevo universo (2018) 3D OU Full 1080p Latino pelicula full hd, Spider-Man: Un nuevo universo (2018) 3D OU Full 1080p Latino mega latino, Spider-Man: Un nuevo universo (2018) 3D OU Full 1080p Latino 4k latino, Spider-Man: Un nuevo universo (2018) 3D OU Full 1080p Latino pelicula completa, Spider-Man: Un nuevo universo (2018) 3D OU Full 1080p Latino descargar gratis, descargar Spider-Man: Un nuevo universo (2018) 3D OU Full 1080p Latino pelicula latino, Spider-Man: Un nuevo universo (2018) 3D OU Full 1080p Latino 1 link mega, Spider-Man: Un nuevo universo (2018) 3D OU Full 1080p Latino 1 link google drive, Spider-Man: Un nuevo universo (2018) 3D OU Full 1080p Latino hd 1080p latino.
Comentarios 1
  • ricardo C - 19 marzo, 2019

    Excelente!! en 3D Muchas Gracias!!