×

¿Problemas para descargar con Mozilla, EDGE? Deshabilita la opción "Abrir vinculos en una pestaña nueva" tal como lo muestra ésta imagen.

Spider-Man: Sin camino a casa (2021) PLACEBO Full HD 1080p Latino

14.081 vistas

Información de Spider-Man: Sin camino a casa (2021) PLACEBO Full HD 1080p Latino

Datos de la película

  • Calidad: Full 1080p
  • Audio: Español Latino AC3 5.1 BLURAY - Ingles DTS 5.1 BLURAY
  • Subtitulos: Español Latino SRT- FORZADOS SRT
  • Resolución: 1920x1080p
  • Formato: MKV
  • Codec: H.264
  • Encoder: Melkor
  • Mediainfo: Clic para Mostrar Datos Ver
  • Spider-Man. Sin Camino A Casa (2021) PLACEBO 1080p Latino.mkv
    Format                      : Matroska
    Format version              : Version 4
    File size                   : 6.47 GiB
    Duration                    : 2 h 28 min
    Overall bit rate            : 6 255 kb/s
    Movie name                  : Spider-Man. No Way Home (2021) CinemaniaHDD.Net
    Encoded date                : UTC 2022-03-12 14:37:35
    Writing application         : mkvmerge v56.1.0 ('My Friend') 64-bit
    Writing library             : libebml v1.4.2 + libmatroska v1.6.4
    Attachments                 : CINEMANIAHD.png

    Video
    ID                          : 1
    Format                      : AVC
    Format/Info                 : Advanced Video Codec
    Format profile              : High@L4.1
    Format settings             : CABAC / 4 Ref Frames
    Format settings, CABAC      : Yes
    Format settings, Reference  : 4 frames
    Codec ID                    : V_MPEG4/ISO/AVC
    Duration                    : 2 h 28 min
    Bit rate                    : 4 085 kb/s
    Width                       : 1 920 pixels
    Height                      : 1 080 pixels
    Display aspect ratio        : 16:9
    Frame rate mode             : Constant
    Frame rate                  : 23.976 (24000/1001) FPS
    Color space                 : YUV
    Chroma subsampling          : 4:2:0
    Bit depth                   : 8 bits
    Scan type                   : Progressive
    Bits/(Pixel*Frame)          : 0.082
    Stream size                 : 4.23 GiB (65%)
    Title                       : Full HD1080p [CinemaniaHDD]
    Writing library             : x264 core 163 r3059 b684ebe0
    Encoding settings           : cabac=1 / ref=4 / deblock=1:0:0 / analyse=0x3:0x133 / me=tesa / subme=11 / psy=1 / psy_rd=1.00:0.00 / mixed_ref=1 / me_range=24 / chroma_me=1 / trellis=2 / 8x8dct=1 / cqm=0 / deadzone=21,11 / fast_pskip=0 / chroma_qp_offset=-2 / threads=24 / lookahead_threads=6 / sliced_threads=0 / nr=0 / decimate=1 / interlaced=0 / bluray_compat=0 / constrained_intra=0 / bframes=16 / b_pyramid=2 / b_adapt=2 / b_bias=0 / direct=3 / weightb=1 / open_gop=0 / weightp=2 / keyint=240 / keyint_min=24 / scenecut=40 / intra_refresh=0 / rc_lookahead=60 / rc=crf / mbtree=1 / crf=18.5 / qcomp=0.60 / qpmin=0 / qpmax=69 / qpstep=4 / vbv_maxrate=62500 / vbv_bufsize=78125 / crf_max=0.0 / nal_hrd=none / filler=0 / ip_ratio=1.40 / aq=1:1.00
    Default                     : Yes
    Forced                      : Yes
    Color range                 : Limited
    Color primaries             : BT.709
    Transfer characteristics    : BT.709
    Matrix coefficients         : BT.709

    Audio #1
    ID                          : 2
    Format                      : AC-3
    Format/Info                 : Audio Coding 3
    Commercial name             : Dolby Digital
    Codec ID                    : A_AC3
    Duration                    : 2 h 28 min
    Bit rate mode               : Constant
    Bit rate                    : 640 kb/s
    Channel(s)                  : 6 channels
    Channel layout              : L R C LFE Ls Rs
    Sampling rate               : 48.0 kHz
    Frame rate                  : 31.250 FPS (1536 SPF)
    Compression mode            : Lossy
    Stream size                 : 678 MiB (10%)
    Title                       : Español Latino [CinemaniaHDD]
    Language                    : Spanish
    Service kind                : Complete Main
    Default                     : Yes
    Forced                      : Yes

    Audio #2
    ID                          : 3
    Format                      : DTS
    Format/Info                 : Digital Theater Systems
    Codec ID                    : A_DTS
    Duration                    : 2 h 28 min
    Bit rate mode               : Constant
    Bit rate                    : 1 509 kb/s
    Channel(s)                  : 6 channels
    Channel layout              : C L R Ls Rs LFE
    Sampling rate               : 48.0 kHz
    Frame rate                  : 93.750 FPS (512 SPF)
    Bit depth                   : 24 bits
    Compression mode            : Lossy
    Stream size                 : 1.56 GiB (24%)
    Title                       : Ingles [CinemaniaHDD]
    Language                    : English
    Default                     : No
    Forced                      : No

    Text #1
    ID                          : 4
    Format                      : UTF-8
    Codec ID                    : S_TEXT/UTF8
    Codec ID/Info               : UTF-8 Plain Text
    Duration                    : 2 h 19 min
    Bit rate                    : 1 b/s
    Count of elements           : 33
    Stream size                 : 1.16 KiB (0%)
    Title                       : Forzados-SRT [CinemaniaHDD]
    Language                    : Spanish
    Default                     : Yes
    Forced                      : Yes

    Text #2
    ID                          : 5
    Format                      : UTF-8
    Codec ID                    : S_TEXT/UTF8
    Codec ID/Info               : UTF-8 Plain Text
    Duration                    : 2 h 28 min
    Bit rate                    : 66 b/s
    Count of elements           : 2162
    Stream size                 : 72.0 KiB (0%)
    Title                       : Español-SRT [CinemaniaHDD]
    Language                    : Spanish
    Default                     : No
    Forced                      : No

    Text #3
    ID                          : 6
    Format                      : PGS
    Muxing mode                 : zlib
    Codec ID                    : S_HDMV/PGS
    Codec ID/Info               : Picture based subtitle format used on BDs/HD-DVDs
    Duration                    : 2 h 27 min
    Bit rate                    : 35.3 kb/s
    Count of elements           : 3833
    Stream size                 : 37.4 MiB (1%)
    Title                       : Ingles [CinemaniaHDD]
    Language                    : English
    Default                     : No
    Forced                      : No

    Menu
    00:00:00.000                : Chapter 01
    00:05:03.177                : Chapter 02
    00:11:58.591                : Chapter 03
    00:18:38.909                : Chapter 04
    00:27:00.451                : Chapter 05
    00:37:21.239                : Chapter 06
    00:48:02.003                : Chapter 07
    00:59:51.795                : Chapter 08
    01:04:06.634                : Chapter 09
    01:09:51.311                : Chapter 10
    01:18:29.453                : Chapter 11
    01:28:59.625                : Chapter 12
    01:33:48.287                : Chapter 13
    01:46:38.390                : Chapter 14
    02:05:39.323                : Chapter 15
    02:13:03.600                : Chapter 16

  • Peso: 6.47 GiB

Sinopsis

Descargar Spider-Man: Sin camino a casa (2021) PLACEBO Full HD 1080p Latino. Peter Parker es desenmascarado y ya no puede separar su vida normal de los altos riesgos de ser un súper héroe. Cuando pide ayuda al Doctor Strange para recuperar su secreto, el hechizo crea un agujero en su mundo, liberando a los villanos más poderosos que han luchado con cualquier Spider-Man, en cualquier universo. Ahora Peter debe de superar su reto más grande, que no solo alterara su propio futuro pero el del multiverso, forzándolo a descubrir lo que realmente significa ser Spider-Man.

Ficha técnica

Video trailer de la película

Enlaces de descarga

Rip de Bluray

Descargar Spider-Man: Sin camino a casa (2021) PLACEBO Full HD 1080p Latino




Aportes de DPeliculasHDmega la pass es:dpeliculashdmega.org Aportes de CinemaniaHD la pass es:cinemaniahdd.com

Películas relacionadas

descargar Spider-Man: Sin camino a casa (2021) PLACEBO Full HD 1080p Latino Full 1080p 1080p gratis, Spider-Man: Sin camino a casa (2021) PLACEBO Full HD 1080p Latino Full 1080p mega 1 link, Spider-Man: Sin camino a casa (2021) PLACEBO Full HD 1080p Latino Full 1080p pelicula completa, descargar Spider-Man: Sin camino a casa (2021) PLACEBO Full HD 1080p Latino Full 1080p gratis en mega.

Spider-Man: Sin camino a casa (2021) PLACEBO Full HD 1080p Latino pelicula full hd, Spider-Man: Sin camino a casa (2021) PLACEBO Full HD 1080p Latino mega latino, Spider-Man: Sin camino a casa (2021) PLACEBO Full HD 1080p Latino 4k latino, Spider-Man: Sin camino a casa (2021) PLACEBO Full HD 1080p Latino pelicula completa, Spider-Man: Sin camino a casa (2021) PLACEBO Full HD 1080p Latino descargar gratis, descargar Spider-Man: Sin camino a casa (2021) PLACEBO Full HD 1080p Latino pelicula latino, Spider-Man: Sin camino a casa (2021) PLACEBO Full HD 1080p Latino 1 link mega, Spider-Man: Sin camino a casa (2021) PLACEBO Full HD 1080p Latino 1 link google drive, Spider-Man: Sin camino a casa (2021) PLACEBO Full HD 1080p Latino hd 1080p latino.
Comentarios 2
  • Augusto - 13 marzo, 2022

    Desde la Parte2 en adelante de Drive no permite descargar, Sale este mensaje. Se ha denegado el acceso a doc-0c-54-docs.googleusercontent.comNo tienes autorización para ver esta página. Solucionen porfa.

    • CinemaniaHDD - 13 marzo, 2022

      ya pues descarga las otras partes desde las otras opciones de descarga.