×

¿Problemas para descargar con Mozilla, EDGE? Deshabilita la opción "Abrir vinculos en una pestaña nueva" tal como lo muestra ésta imagen.

Spider-Man No Way Home (2021) REMUX 4K HDR Latino – CMHDD

1.700 vistas

Información de Spider-Man No Way Home (2021) REMUX 4K HDR Latino – CMHDD

Datos de la película

  • Calidad: 4K HDR
  • Audio: Se especifica abajo de la Sinopsis
  • Subtitulos: Español Latino PGS
  • Resolución: 3840x2160p
  • Formato: MKV
  • Codec: H.264
  • Encoder: Dracarys
  • Mediainfo: Clic para Mostrar Datos Ver
  • Format                      : Matroska
    Format version              : Version 4
    File size                   : 59.7 GiB
    Duration                    : 2 h 28 min
    Overall bit rate mode       : Variable
    Overall bit rate            : 57.7 Mb/s
    Movie name                  : Spider-Man: No Way Home (2021) REMUX 4K HDR Latino - CMHDD
    Encoded date                : UTC 2022-03-30 21:34:40
    Writing application         : mkvmerge v17.0.0 ('Be Ur Friend') 64-bit
    Writing library             : libebml v1.3.5 + libmatroska v1.4.8

    Video
    ID                          : 1
    Format                      : HEVC
    Format/Info                 : High Efficiency Video Coding
    Format profile              : Main 10@L5.1@High
    HDR format                  : SMPTE ST 2086, HDR10 compatible
    Codec ID                    : V_MPEGH/ISO/HEVC
    Duration                    : 2 h 28 min
    Bit rate                    : 52.2 Mb/s
    Width                       : 3 840 pixels
    Height                      : 2 160 pixels
    Display aspect ratio        : 16:9
    Frame rate mode             : Constant
    Frame rate                  : 23.976 (24000/1001) FPS
    Color space                 : YUV
    Chroma subsampling          : 4:2:0 (Type 2)
    Bit depth                   : 10 bits
    Bits/(Pixel*Frame)          : 0.263
    Stream size                 : 54.1 GiB (91%)
    Default                     : Yes
    Forced                      : No
    Color range                 : Limited
    Color primaries             : BT.2020
    Transfer characteristics    : PQ
    Matrix coefficients         : BT.2020 non-constant
    Mastering display color pri : BT.2020
    Mastering display luminance : min: 0.0001 cd/m2, max: 1000 cd/m2
    Maximum Content Light Level : 9978 cd/m2
    Maximum Frame-Average Light : 867 cd/m2

    Audio #1
    ID                          : 2
    Format                      : MLP FBA 16-ch
    Format/Info                 : Meridian Lossless Packing FBA with 16-channel presentation
    Commercial name             : Dolby TrueHD with Dolby Atmos
    Codec ID                    : A_TRUEHD
    Duration                    : 2 h 28 min
    Bit rate mode               : Variable
    Bit rate                    : 4 054 kb/s
    Maximum bit rate            : 7 548 kb/s
    Channel(s)                  : 8 channels
    Channel layout              : L R C LFE Ls Rs Lb Rb
    Sampling rate               : 48.0 kHz
    Frame rate                  : 1 200.000 FPS (40 SPF)
    Compression mode            : Lossless
    Stream size                 : 4.20 GiB (7%)
    Language                    : English
    Default                     : No
    Forced                      : No
    Number of dynamic objects   : 11
    Bed channel count           : 1 channel
    Bed channel configuration   : LFE

    Audio #2
    ID                          : 3
    Format                      : AC-3
    Format/Info                 : Audio Coding 3
    Commercial name             : Dolby Digital
    Codec ID                    : A_AC3
    Duration                    : 2 h 28 min
    Bit rate mode               : Constant
    Bit rate                    : 640 kb/s
    Channel(s)                  : 6 channels
    Channel layout              : L R C LFE Ls Rs
    Sampling rate               : 48.0 kHz
    Frame rate                  : 31.250 FPS (1536 SPF)
    Compression mode            : Lossy
    Stream size                 : 678 MiB (1%)
    Language                    : English
    Service kind                : Complete Main
    Default                     : No
    Forced                      : No

    Audio #3
    ID                          : 4
    Format                      : AC-3
    Format/Info                 : Audio Coding 3
    Commercial name             : Dolby Digital
    Codec ID                    : A_AC3
    Duration                    : 2 h 28 min
    Bit rate mode               : Constant
    Bit rate                    : 640 kb/s
    Channel(s)                  : 6 channels
    Channel layout              : L R C LFE Ls Rs
    Sampling rate               : 48.0 kHz
    Frame rate                  : 31.250 FPS (1536 SPF)
    Compression mode            : Lossy
    Delay relative to video     : 15 ms
    Stream size                 : 678 MiB (1%)
    Language                    : Spanish
    Service kind                : Complete Main
    Default                     : Yes
    Forced                      : No

    Text
    ID                          : 5
    Format                      : PGS
    Muxing mode                 : zlib
    Codec ID                    : S_HDMV/PGS
    Codec ID/Info               : Picture based subtitle format used on BDs/HD-DVDs
    Duration                    : 2 h 28 min
    Bit rate                    : 30.4 kb/s
    Count of elements           : 3821
    Stream size                 : 32.2 MiB (0%)
    Language                    : Spanish
    Default                     : No
    Forced                      : No

    Menu
    00:00:00.000                : en:Chapter 1
    00:05:03.177                : en:Chapter 2
    00:11:58.592                : en:Chapter 3
    00:18:38.909                : en:Chapter 4
    00:27:00.452                : en:Chapter 5
    00:37:21.239                : en:Chapter 6
    00:48:02.004                : en:Chapter 7
    00:59:51.796                : en:Chapter 8
    01:04:06.634                : en:Chapter 9
    01:09:51.312                : en:Chapter 10
    01:18:29.454                : en:Chapter 11
    01:28:59.625                : en:Chapter 12
    01:33:48.289                : en:Chapter 13
    01:46:38.392                : en:Chapter 14
    02:05:39.323                : en:Chapter 15
    02:13:03.600                : en:Chapter 16

  • Peso: 59.7 GiB

Sinopsis

Peter Parker es desenmascarado y por tanto no es capaz de separar su vida normal de los enormes riesgos que conlleva ser un súper héroe. Cuando pide ayuda a Doctor Strange, los riesgos pasan a ser aún más peligrosos, obligándole a descubrir lo que realmente significa ser Spider-Man.

 

Latino: AC3 5.1  –  Inglés: TrueHD 7.1

Ficha técnica

Video trailer de la película

Enlaces de descarga

Rip de Bluray

Descargar Spider-Man No Way Home (2021) REMUX 4K HDR Latino – CMHDD


Aportes de DPeliculasHDmega la pass es:dpeliculashdmega.org Aportes de CinemaniaHD la pass es:cinemaniahdd.com
Guardado en : Acción , Aventura , Ciencia ficción

Películas relacionadas

  • Mi amigo el dragón (2016) Full HD 1080p Latino

    Mi amigo el dragón (2016) Full HD 1080p Latino

    2016
    Mi amigo el dragón (2016) Full HD 1080p Latino

    1h 43m 2016

    Descargar Mi amigo el dragón (2016) Full HD 1080p Latino. Durante años el Sr. Meacham, un viejo tallador...

    Director: Joe Nolan

    Género: Aventura

    Actores: William J. Rawbone

  • Mi amigo el dragón (2016) REMUX 1080p Latino

    Mi amigo el dragón (2016) REMUX 1080p Latino

    2016
    Mi amigo el dragón (2016) REMUX 1080p Latino

    1h 43m 2016

    Descargar Mi amigo el dragón (2016) REMUX 1080p Latino. Durante años el Sr. Meacham, un viejo tallador...

    Director: Joe Nolan

    Género: Aventura

    Actores: William J. Rawbone

  • Lucy (2014) REMUX 4K HDR Latino – CMHDD

    Lucy (2014) REMUX 4K HDR Latino – CMHDD

    2014
    Lucy (2014) REMUX 4K HDR Latino – CMHDD

    1h 30m 2014

    Lucy, una joven obligada a ejercer de mula de una nueva y potente droga, adquiere de repente enormes...

    Director: Luc Besson

    Género: Acción

    Actores: Wolfgang Pissors

descargar Spider-Man No Way Home (2021) REMUX 4K HDR Latino – CMHDD 4K HDR 1080p gratis, Spider-Man No Way Home (2021) REMUX 4K HDR Latino – CMHDD 4K HDR mega 1 link, Spider-Man No Way Home (2021) REMUX 4K HDR Latino – CMHDD 4K HDR pelicula completa, descargar Spider-Man No Way Home (2021) REMUX 4K HDR Latino – CMHDD 4K HDR gratis en mega.

Spider-Man No Way Home (2021) REMUX 4K HDR Latino – CMHDD pelicula full hd, Spider-Man No Way Home (2021) REMUX 4K HDR Latino – CMHDD mega latino, Spider-Man No Way Home (2021) REMUX 4K HDR Latino – CMHDD 4k latino, Spider-Man No Way Home (2021) REMUX 4K HDR Latino – CMHDD pelicula completa, Spider-Man No Way Home (2021) REMUX 4K HDR Latino – CMHDD descargar gratis, descargar Spider-Man No Way Home (2021) REMUX 4K HDR Latino – CMHDD pelicula latino, Spider-Man No Way Home (2021) REMUX 4K HDR Latino – CMHDD 1 link mega, Spider-Man No Way Home (2021) REMUX 4K HDR Latino – CMHDD 1 link google drive, Spider-Man No Way Home (2021) REMUX 4K HDR Latino – CMHDD hd 1080p latino.
Comentarios 0