×

¿Problemas para descargar con Mozilla, EDGE? Deshabilita la opción "Abrir vinculos en una pestaña nueva" tal como lo muestra ésta imagen.

Spider-Man: Lejos de Casa (2019) WEB-DL 1080p Latino

3.983 vistas

Información de Spider-Man: Lejos de Casa (2019) WEB-DL 1080p Latino

Datos de la película

  • Calidad: WEBDL
  • Audio: Español Latino AC3 2.0 iTunes - Ingles AC3 5.1 iTunes
  • Subtitulos: Español Latino SRT- FORZADOS SRT
  • Resolución: 1920x796
  • Formato: MKV
  • Codec: H.264
  • Encoder: cinemaniahdd
  • Mediainfo: Clic para Mostrar Datos Ver
  • Spider-Man Far from Home (2019) WEB-DL 1080p Latino.mkv
    Format                      : Matroska
    Format version              : Version 4
    File size                   : 4.65 GiB
    Duration                    : 2 h 9 min
    Overall bit rate            : 5 145 kb/s
    Movie name                  : Spider-Man Far from Home (2019) WEB-DL 1080p Latino
    Encoded date                : UTC 2019-09-17 04:49:26
    Writing application         : mkvmerge v35.0.0 ('All The Love In The World') 64-bit
    Writing library             : libebml v1.3.9 + libmatroska v1.5.2

    Video
    ID                          : 1
    Format                      : AVC
    Format/Info                 : Advanced Video Codec
    Format profile              : High@L4
    Format settings             : CABAC / 5 Ref Frames
    Format settings, CABAC      : Yes
    Format settings, ReFrames   : 5 frames
    Codec ID                    : V_MPEG4/ISO/AVC
    Duration                    : 2 h 9 min
    Bit rate                    : 4 503 kb/s
    Width                       : 1 920 pixels
    Height                      : 796 pixels
    Display aspect ratio        : 2.40:1
    Frame rate mode             : Constant
    Frame rate                  : 23.976 (24000/1001) FPS
    Color space                 : YUV
    Chroma subsampling          : 4:2:0
    Bit depth                   : 8 bits
    Scan type                   : Progressive
    Bits/(Pixel*Frame)          : 0.123
    Stream size                 : 4.07 GiB (88%)
    Title                       : CinemaniaHDD
    Language                    : English
    Default                     : Yes
    Forced                      : No
    Color range                 : Limited
    Color primaries             : BT.709
    Transfer characteristics    : BT.709
    Matrix coefficients         : BT.709

    Audio #1
    ID                          : 2
    Format                      : AC-3
    Format/Info                 : Audio Coding 3
    Commercial name             : Dolby Digital
    Codec ID                    : A_AC3
    Duration                    : 2 h 9 min
    Bit rate mode               : Constant
    Bit rate                    : 256 kb/s
    Channel(s)                  : 2 channels
    Channel layout              : L R
    Sampling rate               : 48.0 kHz
    Frame rate                  : 31.250 FPS (1536 SPF)
    Bit depth                   : 16 bits
    Compression mode            : Lossy
    Delay relative to video     : -42 ms
    Stream size                 : 237 MiB (5%)
    Title                       : Español latino [CinemaniaHDD]
    Language                    : Spanish
    Service kind                : Complete Main
    Default                     : Yes
    Forced                      : No

    Audio #2
    ID                          : 3
    Format                      : AC-3
    Format/Info                 : Audio Coding 3
    Commercial name             : Dolby Digital
    Codec ID                    : A_AC3
    Duration                    : 2 h 9 min
    Bit rate mode               : Constant
    Bit rate                    : 384 kb/s
    Channel(s)                  : 6 channels
    Channel layout              : L R C LFE Ls Rs
    Sampling rate               : 48.0 kHz
    Frame rate                  : 31.250 FPS (1536 SPF)
    Bit depth                   : 16 bits
    Compression mode            : Lossy
    Delay relative to video     : -42 ms
    Stream size                 : 355 MiB (7%)
    Title                       : Inglés [CinemaniaHDD]
    Language                    : English
    Service kind                : Complete Main
    Default                     : No
    Forced                      : No

    Text #1
    ID                          : 4
    Format                      : UTF-8
    Codec ID                    : S_TEXT/UTF8
    Codec ID/Info               : UTF-8 Plain Text
    Duration                    : 2 h 8 min
    Bit rate                    : 0 b/s
    Count of elements           : 12
    Stream size                 : 376 Bytes (0%)
    Title                       : Forzados [CinemaniaHDD]
    Language                    : Spanish
    Default                     : Yes
    Forced                      : No

    Text #2
    ID                          : 5
    Format                      : UTF-8
    Codec ID                    : S_TEXT/UTF8
    Codec ID/Info               : UTF-8 Plain Text
    Duration                    : 2 h 8 min
    Bit rate                    : 61 b/s
    Count of elements           : 1719
    Stream size                 : 57.9 KiB (0%)
    Title                       : Español latino [CinemaniaHDD]
    Language                    : Spanish
    Default                     : No
    Forced                      : No

    Menu
    00:00:00.000                : en:1
    00:09:34.032                : en:2
    00:16:05.715                : en:3
    00:25:17.474                : en:4
    00:35:25.497                : en:5
    00:41:56.011                : en:6
    00:49:49.025                : en:7
    00:57:08.506                : en:8
    01:04:49.632                : en:9
    01:15:56.215                : en:10
    01:22:48.084                : en:11
    01:29:24.188                : en:12
    01:36:42.251                : en:13
    01:44:46.360                : en:14
    01:52:16.393                : en:15
    01:57:44.429                : en:16

  • Peso: 4.65 GiB

Sinopsis

Peter Parker decide irse junto a Michelle Jones, Ned y el resto de sus amigos a pasar unas vacaciones a Europa después de los eventos ocurridos en Vengadores: EndGame. Sin embargo, el plan de Parker por dejar de lado sus superpoderes durante unas semanas se ven truncados cuándo es reclutado por Nick Fury para unirse a Mysterio (un humano que proviene de la Tierra 833, una dimensión del Multiverso, que tuvo su primera aparición en Doctor Strange) para luchar contra los Elementales (cuatro entes inmortales que vienen de la misma dimensión y que dominan los cuatro elementos de la Naturaleza, el fuego, el agua, el aire y la tierra) . En ese momento, Parker vuelve a ponerse el traje de Spider-Man para cumplir con su labor.

Ficha técnica

Video trailer de la película

Enlaces de descarga

Rip de Bluray

Descargar Spider-Man: Lejos de Casa (2019) WEB-DL 1080p Latino




Aportes de DPeliculasHDmega la pass es:dpeliculashdmega.org Aportes de CinemaniaHD la pass es:cinemaniahdd.com
Guardado en : Acción , Aventura , Ciencia ficción

Películas relacionadas

  • Wire Room (2022) HD 1080p Latino

    Wire Room (2022) HD 1080p Latino

    2022
    Wire Room (2022) HD 1080p Latino

    1h 37m 2022

    Descargar Wire Room (2022) HD 1080p Latino. Mientras está de servicio en la sala de cables, un agente...

    Director: Matt Eskandari

    Género: Acción

    Actores: Texas Battle

  • Wire Room (2022) PLACEBO Full HD 1080p Latino

    Wire Room (2022) PLACEBO Full HD 1080p Latino

    2022
    Wire Room (2022) PLACEBO Full HD 1080p Latino

    1h 37m 2022

    Descargar Wire Room (2022) PLACEBO Full HD 1080p Latino. Mientras está de servicio en la sala de cables,...

    Director: Matt Eskandari

    Género: Acción

    Actores: Texas Battle

  • Wire Room (2022) REMUX 1080p Latino

    Wire Room (2022) REMUX 1080p Latino

    2022
    Wire Room (2022) REMUX 1080p Latino

    1h 37m 2022

    Descargar Wire Room (2022) REMUX 1080p Latino. Mientras está de servicio en la sala de cables, un agente...

    Director: Matt Eskandari

    Género: Acción

    Actores: Texas Battle

descargar Spider-Man: Lejos de Casa (2019) WEB-DL 1080p Latino WEBDL 1080p gratis, Spider-Man: Lejos de Casa (2019) WEB-DL 1080p Latino WEBDL mega 1 link, Spider-Man: Lejos de Casa (2019) WEB-DL 1080p Latino WEBDL pelicula completa, descargar Spider-Man: Lejos de Casa (2019) WEB-DL 1080p Latino WEBDL gratis en mega.

Spider-Man: Lejos de Casa (2019) WEB-DL 1080p Latino pelicula full hd, Spider-Man: Lejos de Casa (2019) WEB-DL 1080p Latino mega latino, Spider-Man: Lejos de Casa (2019) WEB-DL 1080p Latino 4k latino, Spider-Man: Lejos de Casa (2019) WEB-DL 1080p Latino pelicula completa, Spider-Man: Lejos de Casa (2019) WEB-DL 1080p Latino descargar gratis, descargar Spider-Man: Lejos de Casa (2019) WEB-DL 1080p Latino pelicula latino, Spider-Man: Lejos de Casa (2019) WEB-DL 1080p Latino 1 link mega, Spider-Man: Lejos de Casa (2019) WEB-DL 1080p Latino 1 link google drive, Spider-Man: Lejos de Casa (2019) WEB-DL 1080p Latino hd 1080p latino.
Comentarios 0