×

¿Problemas para descargar con Mozilla, EDGE? Deshabilita la opción "Abrir vinculos en una pestaña nueva" tal como lo muestra ésta imagen.

Spider-Man Homecoming (2017) REMUX 1080p Latino – CMHDD

1.249 vistas

Información de Spider-Man Homecoming (2017) REMUX 1080p Latino – CMHDD

Datos de la película

  • Calidad: Full 1080p
  • Audio: Español Latino AC3 5.1 BLURAY - Ingles DTS 5.1 BLURAY
  • Subtitulos: Español Latino PGS
  • Resolución: 1920x1080p
  • Formato: MKV
  • Codec: H.264
  • Encoder: Dracarys
  • Mediainfo: Clic para Mostrar Datos Ver
  • Format                      : Matroska
    Format version              : Version 4
    File size                   : 26.0 GiB
    Duration                    : 2 h 13 min
    Overall bit rate mode       : Variable
    Overall bit rate            : 27.9 Mb/s
    Movie name                  : Spider-Man: Homecoming (2017) REMUX 1080p Latino - CMHDD
    Encoded date                : UTC 2022-03-16 23:14:12
    Writing application         : mkvmerge v17.0.0 ('Be Ur Friend') 64-bit
    Writing library             : libebml v1.3.5 + libmatroska v1.4.8

    Video
    ID                          : 1
    Format                      : AVC
    Format/Info                 : Advanced Video Codec
    Format profile              : High@L4.1
    Format settings             : CABAC / 2 Ref Frames
    Format settings, CABAC      : Yes
    Format settings, Reference  : 2 frames
    Format settings, GOP        : M=1, N=10
    Codec ID                    : V_MPEG4/ISO/AVC
    Duration                    : 2 h 13 min
    Bit rate mode               : Variable
    Bit rate                    : 24.9 Mb/s
    Width                       : 1 920 pixels
    Height                      : 1 080 pixels
    Display aspect ratio        : 16:9
    Frame rate mode             : Constant
    Frame rate                  : 23.976 (24000/1001) FPS
    Color space                 : YUV
    Chroma subsampling          : 4:2:0
    Bit depth                   : 8 bits
    Scan type                   : Progressive
    Bits/(Pixel*Frame)          : 0.502
    Stream size                 : 23.2 GiB (89%)
    Default                     : Yes
    Forced                      : No

    Audio #1
    ID                          : 2
    Format                      : DTS XLL
    Format/Info                 : Digital Theater Systems
    Commercial name             : DTS-HD Master Audio
    Codec ID                    : A_DTS
    Duration                    : 2 h 13 min
    Bit rate mode               : Variable
    Bit rate                    : 2 342 kb/s
    Channel(s)                  : 6 channels
    Channel layout              : C L R Ls Rs LFE
    Sampling rate               : 48.0 kHz
    Frame rate                  : 93.750 FPS (512 SPF)
    Bit depth                   : 16 bits
    Compression mode            : Lossless
    Stream size                 : 2.18 GiB (8%)
    Language                    : English
    Default                     : No
    Forced                      : No

    Audio #2
    ID                          : 3
    Format                      : AC-3
    Format/Info                 : Audio Coding 3
    Commercial name             : Dolby Digital
    Codec ID                    : A_AC3
    Duration                    : 2 h 13 min
    Bit rate mode               : Constant
    Bit rate                    : 640 kb/s
    Channel(s)                  : 6 channels
    Channel layout              : L R C LFE Ls Rs
    Sampling rate               : 48.0 kHz
    Frame rate                  : 31.250 FPS (1536 SPF)
    Compression mode            : Lossy
    Delay relative to video     : 24 ms
    Stream size                 : 611 MiB (2%)
    Language                    : Spanish
    Service kind                : Complete Main
    Default                     : Yes
    Forced                      : No

    Text
    ID                          : 4
    Format                      : PGS
    Muxing mode                 : zlib
    Codec ID                    : S_HDMV/PGS
    Codec ID/Info               : Picture based subtitle format used on BDs/HD-DVDs
    Duration                    : 2 h 12 min
    Bit rate                    : 34.1 kb/s
    Count of elements           : 3355
    Stream size                 : 32.4 MiB (0%)
    Language                    : Spanish
    Default                     : No
    Forced                      : No

    Menu
    00:00:00.000                : en:Chapter 1
    00:05:34.083                : en:Chapter 2
    00:14:24.280                : en:Chapter 3
    00:20:50.999                : en:Chapter 4
    00:26:19.244                : en:Chapter 5
    00:36:27.977                : en:Chapter 6
    00:46:03.927                : en:Chapter 7
    00:54:40.193                : en:Chapter 8
    01:05:10.281                : en:Chapter 9
    01:12:03.277                : en:Chapter 10
    01:20:20.190                : en:Chapter 11
    01:29:41.542                : en:Chapter 12
    01:36:56.894                : en:Chapter 13
    01:44:44.152                : en:Chapter 14
    01:50:31.249                : en:Chapter 15
    01:57:53.566                : en:Chapter 16

  • Peso: 26.0 GiB

Sinopsis

Peter Parker comienza a experimentar su recién descubierta identidad como el superhéroe Spider-Man. Después de la experiencia vivida con los Vengadores, Peter regresa a casa, donde vive con su tía. Bajo la atenta mirada de su mentor Tony Stark, Peter intenta mantener una vida normal como cualquier joven de su edad, pero interrumpe en su rutina diaria el nuevo villano Vulture y, con él, lo más importante de la vida de Peter comenzará a verse amenazado.

Ficha técnica

Video trailer de la película

Enlaces de descarga

Rip de Bluray

Descargar Spider-Man Homecoming (2017) REMUX 1080p Latino – CMHDD


Aportes de DPeliculasHDmega la pass es:dpeliculashdmega.org Aportes de CinemaniaHD la pass es:cinemaniahdd.com
Guardado en : Acción , Aventura , Ciencia ficción , Drama

Películas relacionadas

descargar Spider-Man Homecoming (2017) REMUX 1080p Latino – CMHDD Full 1080p 1080p gratis, Spider-Man Homecoming (2017) REMUX 1080p Latino – CMHDD Full 1080p mega 1 link, Spider-Man Homecoming (2017) REMUX 1080p Latino – CMHDD Full 1080p pelicula completa, descargar Spider-Man Homecoming (2017) REMUX 1080p Latino – CMHDD Full 1080p gratis en mega.

Spider-Man Homecoming (2017) REMUX 1080p Latino – CMHDD pelicula full hd, Spider-Man Homecoming (2017) REMUX 1080p Latino – CMHDD mega latino, Spider-Man Homecoming (2017) REMUX 1080p Latino – CMHDD 4k latino, Spider-Man Homecoming (2017) REMUX 1080p Latino – CMHDD pelicula completa, Spider-Man Homecoming (2017) REMUX 1080p Latino – CMHDD descargar gratis, descargar Spider-Man Homecoming (2017) REMUX 1080p Latino – CMHDD pelicula latino, Spider-Man Homecoming (2017) REMUX 1080p Latino – CMHDD 1 link mega, Spider-Man Homecoming (2017) REMUX 1080p Latino – CMHDD 1 link google drive, Spider-Man Homecoming (2017) REMUX 1080p Latino – CMHDD hd 1080p latino.
Comentarios 0