×

¿Problemas para descargar con Mozilla, EDGE? Deshabilita la opción "Abrir vinculos en una pestaña nueva" tal como lo muestra ésta imagen.

Spider-Man 3 (2007) REMUX 1080p Latino – CMHDD

249 vistas

Información de Spider-Man 3 (2007) REMUX 1080p Latino – CMHDD

Datos de la película

  • Calidad: Full 1080p
  • Audio: Español Latino AC3 5.1 BLURAY - Ingles AC3 5.1 BLURAY
  • Subtitulos: Español Latino PGS
  • Resolución: 1920x1080p
  • Formato: MKV
  • Codec: H.264
  • Encoder: Dracarys
  • Mediainfo: Clic para Mostrar Datos Ver
  • Format                      : Matroska
    Format version              : Version 4
    File size                   : 30.0 GiB
    Duration                    : 2 h 19 min
    Overall bit rate mode       : Variable
    Overall bit rate            : 30.8 Mb/s
    Movie name                  : Spider-Man 3 (2007) REMUX 1080p Latino - CMHDD
    Encoded date                : UTC 2021-08-29 16:30:01
    Writing application         : mkvmerge v17.0.0 ('Be Ur Friend') 64-bit
    Writing library             : libebml v1.3.5 + libmatroska v1.4.8

    Video
    ID                          : 1
    Format                      : AVC
    Format/Info                 : Advanced Video Codec
    Format profile              : High@L4.1
    Format settings             : CABAC / 2 Ref Frames
    Format settings, CABAC      : Yes
    Format settings, Reference  : 2 frames
    Codec ID                    : V_MPEG4/ISO/AVC
    Duration                    : 2 h 19 min
    Bit rate mode               : Variable
    Bit rate                    : 26.1 Mb/s
    Width                       : 1 920 pixels
    Height                      : 1 080 pixels
    Display aspect ratio        : 16:9
    Frame rate mode             : Constant
    Frame rate                  : 23.976 (24000/1001) FPS
    Color space                 : YUV
    Chroma subsampling          : 4:2:0
    Bit depth                   : 8 bits
    Scan type                   : Progressive
    Bits/(Pixel*Frame)          : 0.524
    Stream size                 : 25.3 GiB (84%)
    Language                    : English
    Default                     : No
    Forced                      : No

    Audio #1
    ID                          : 2
    Format                      : AC-3
    Format/Info                 : Audio Coding 3
    Commercial name             : Dolby Digital
    Codec ID                    : A_AC3
    Duration                    : 2 h 19 min
    Bit rate mode               : Constant
    Bit rate                    : 640 kb/s
    Channel(s)                  : 6 channels
    Channel layout              : L R C LFE Ls Rs
    Sampling rate               : 48.0 kHz
    Frame rate                  : 31.250 FPS (1536 SPF)
    Compression mode            : Lossy
    Stream size                 : 637 MiB (2%)
    Language                    : Spanish
    Service kind                : Complete Main
    Default                     : Yes
    Forced                      : No

    Audio #2
    ID                          : 3
    Format                      : MLP FBA
    Format/Info                 : Meridian Lossless Packing FBA
    Commercial name             : Dolby TrueHD
    Codec ID                    : A_TRUEHD
    Duration                    : 2 h 19 min
    Bit rate mode               : Variable
    Bit rate                    : 3 424 kb/s
    Maximum bit rate            : 5 220 kb/s
    Channel(s)                  : 6 channels
    Channel layout              : L R C LFE Ls Rs
    Sampling rate               : 48.0 kHz
    Frame rate                  : 1 200.000 FPS (40 SPF)
    Compression mode            : Lossless
    Stream size                 : 3.33 GiB (11%)
    Language                    : English
    Default                     : No
    Forced                      : No

    Audio #3
    ID                          : 4
    Format                      : AC-3
    Format/Info                 : Audio Coding 3
    Commercial name             : Dolby Digital
    Codec ID                    : A_AC3
    Duration                    : 2 h 19 min
    Bit rate mode               : Constant
    Bit rate                    : 640 kb/s
    Channel(s)                  : 6 channels
    Channel layout              : L R C LFE Ls Rs
    Sampling rate               : 48.0 kHz
    Frame rate                  : 31.250 FPS (1536 SPF)
    Compression mode            : Lossy
    Stream size                 : 637 MiB (2%)
    Language                    : English
    Service kind                : Complete Main
    Default                     : No
    Forced                      : No

    Text
    ID                          : 5
    Format                      : PGS
    Muxing mode                 : zlib
    Codec ID                    : S_HDMV/PGS
    Codec ID/Info               : Picture based subtitle format used on BDs/HD-DVDs
    Duration                    : 2 h 11 min
    Bit rate                    : 19.5 kb/s
    Count of elements           : 2264
    Stream size                 : 18.2 MiB (0%)
    Language                    : Spanish
    Default                     : No
    Forced                      : No

    Menu
    00:00:00.000                : en:Chapter 01
    00:03:11.274                : en:Chapter 02
    00:04:39.570                : en:Chapter 03
    00:07:59.479                : en:Chapter 04
    00:08:33.679                : en:Chapter 05
    00:10:30.254                : en:Chapter 06
    00:13:54.708                : en:Chapter 07
    00:16:55.014                : en:Chapter 08
    00:22:23.967                : en:Chapter 09
    00:24:44.649                : en:Chapter 10
    00:27:11.546                : en:Chapter 11
    00:30:12.811                : en:Chapter 12
    00:32:31.240                : en:Chapter 13
    00:36:10.543                : en:Chapter 14
    00:39:43.798                : en:Chapter 15
    00:40:08.155                : en:Chapter 16
    00:41:43.209                : en:Chapter 17
    00:43:20.014                : en:Chapter 18
    00:44:43.472                : en:Chapter 19
    00:46:38.837                : en:Chapter 20
    00:49:24.544                : en:Chapter 21
    00:51:53.151                : en:Chapter 22
    00:59:27.480                : en:Chapter 23
    01:03:30.473                : en:Chapter 24
    01:06:34.448                : en:Chapter 25
    01:08:07.124                : en:Chapter 26
    01:10:45.824                : en:Chapter 27
    01:13:50.592                : en:Chapter 28
    01:15:23.393                : en:Chapter 29
    01:16:42.097                : en:Chapter 30
    01:19:21.715                : en:Chapter 31
    01:22:16.514                : en:Chapter 32
    01:24:21.431                : en:Chapter 33
    01:27:08.306                : en:Chapter 34
    01:30:17.578                : en:Chapter 35
    01:32:43.474                : en:Chapter 36
    01:35:14.041                : en:Chapter 37
    01:35:53.414                : en:Chapter 38
    01:40:46.331                : en:Chapter 39
    01:44:15.916                : en:Chapter 40
    01:47:19.975                : en:Chapter 41
    01:49:10.418                : en:Chapter 42
    01:52:52.640                : en:Chapter 43
    01:56:34.946                : en:Chapter 44
    01:59:57.023                : en:Chapter 45
    02:00:28.346                : en:Chapter 46
    02:02:26.756                : en:Chapter 47
    02:04:29.378                : en:Chapter 48
    02:06:11.313                : en:Chapter 49
    02:09:33.432                : en:Chapter 50
    02:11:56.491                : en:Chapter 51
    02:13:59.489                : en:Chapter 52

  • Peso: 30.0 GiB

Sinopsis

Tercera entrega de las aventuras del joven Peter Parker (Maguire). Parece que Parker ha conseguido por fin el equilibrio entre su devoción por Mary Jane y sus deberes como superhéroe. Pero, de repente, su traje cambia volviéndose negro y aumentando sus poderes; también Peter se transforma, sacando el lado más oscuro y vengativo de su personalidad. Bajo la influencia de este nuevo traje, Peter deja de proteger a la gente que realmente lo quiere y se preocupa por él. En estas circunstancias, no tiene más remedio que elegir entre disfrutar del tentador poder del nuevo traje o seguir siendo el compasivo héroe de antes. Mientras tanto, dos temibles enemigos, Venom y el Hombre de Arena, utilizarán sus poderes para calmar su sed de venganza.

Ficha técnica

Video trailer de la película

Enlaces de descarga

Rip de Bluray

Descargar Spider-Man 3 (2007) REMUX 1080p Latino – CMHDD


Aportes de DPeliculasHDmega la pass es:dpeliculashdmega.org Aportes de CinemaniaHD la pass es:cinemaniahdd.com
Guardado en : Acción , Aventura , Fantasía

Películas relacionadas

descargar Spider-Man 3 (2007) REMUX 1080p Latino – CMHDD Full 1080p 1080p gratis, Spider-Man 3 (2007) REMUX 1080p Latino – CMHDD Full 1080p mega 1 link, Spider-Man 3 (2007) REMUX 1080p Latino – CMHDD Full 1080p pelicula completa, descargar Spider-Man 3 (2007) REMUX 1080p Latino – CMHDD Full 1080p gratis en mega.

Spider-Man 3 (2007) REMUX 1080p Latino – CMHDD pelicula full hd, Spider-Man 3 (2007) REMUX 1080p Latino – CMHDD mega latino, Spider-Man 3 (2007) REMUX 1080p Latino – CMHDD 4k latino, Spider-Man 3 (2007) REMUX 1080p Latino – CMHDD pelicula completa, Spider-Man 3 (2007) REMUX 1080p Latino – CMHDD descargar gratis, descargar Spider-Man 3 (2007) REMUX 1080p Latino – CMHDD pelicula latino, Spider-Man 3 (2007) REMUX 1080p Latino – CMHDD 1 link mega, Spider-Man 3 (2007) REMUX 1080p Latino – CMHDD 1 link google drive, Spider-Man 3 (2007) REMUX 1080p Latino – CMHDD hd 1080p latino.
Comentarios 0