×

¿Problemas para descargar con Mozilla, EDGE? Deshabilita la opción "Abrir vinculos en una pestaña nueva" tal como lo muestra ésta imagen.

Spider-Man 3 (2007) [Open Matte] WEB-DL 1080p Latino – CMHDD

484 vistas

Información de Spider-Man 3 (2007) [Open Matte] WEB-DL 1080p Latino – CMHDD

Datos de la película

  • Calidad: WEBDL
  • Audio: Español Latino AC3 5.1 AMAZON - Ingles DTS 5.1 BLURAY
  • Subtitulos: Español Latino SRT
  • Resolución: 1920x1080p
  • Formato: MKV
  • Codec: H.264
  • Encoder: Dracarys
  • Mediainfo: Clic para Mostrar Datos Ver
  • Format                      : Matroska
    Format version              : Version 4
    File size                   : 7.78 GiB
    Duration                    : 2 h 19 min
    Overall bit rate            : 8 001 kb/s
    Movie name                  : Spider-Man 3 (2007) [Open Matte] WEB-DL 1080p Latino - CMHDD
    Encoded date                : UTC 2021-08-25 23:10:48
    Writing application         : mkvmerge v17.0.0 ('Be Ur Friend') 64-bit
    Writing library             : libebml v1.3.5 + libmatroska v1.4.8

    Video
    ID                          : 1
    Format                      : AVC
    Format/Info                 : Advanced Video Codec
    Format profile              : High@L4
    Format settings             : CABAC / 4 Ref Frames
    Format settings, CABAC      : Yes
    Format settings, Reference  : 4 frames
    Codec ID                    : V_MPEG4/ISO/AVC
    Duration                    : 2 h 19 min
    Bit rate                    : 5 850 kb/s
    Width                       : 1 920 pixels
    Height                      : 1 080 pixels
    Display aspect ratio        : 16:9
    Frame rate mode             : Constant
    Frame rate                  : 23.976 (24000/1001) FPS
    Color space                 : YUV
    Chroma subsampling          : 4:2:0
    Bit depth                   : 8 bits
    Scan type                   : Progressive
    Bits/(Pixel*Frame)          : 0.118
    Stream size                 : 5.69 GiB (73%)
    Language                    : English
    Default                     : Yes
    Forced                      : No

    Audio #1
    ID                          : 2
    Format                      : E-AC-3
    Format/Info                 : Enhanced AC-3
    Commercial name             : Dolby Digital Plus
    Codec ID                    : A_EAC3
    Duration                    : 2 h 19 min
    Bit rate mode               : Constant
    Bit rate                    : 640 kb/s
    Channel(s)                  : 6 channels
    Channel layout              : L R C LFE Ls Rs
    Sampling rate               : 48.0 kHz
    Frame rate                  : 31.250 FPS (1536 SPF)
    Compression mode            : Lossy
    Stream size                 : 637 MiB (8%)
    Language                    : Spanish
    Service kind                : Complete Main
    Default                     : Yes
    Forced                      : No

    Audio #2
    ID                          : 3
    Format                      : DTS
    Format/Info                 : Digital Theater Systems
    Codec ID                    : A_DTS
    Duration                    : 2 h 19 min
    Bit rate mode               : Constant
    Bit rate                    : 1 509 kb/s
    Channel(s)                  : 6 channels
    Channel layout              : C L R Ls Rs LFE
    Sampling rate               : 48.0 kHz
    Frame rate                  : 93.750 FPS (512 SPF)
    Bit depth                   : 24 bits
    Compression mode            : Lossy
    Stream size                 : 1.47 GiB (19%)
    Language                    : English
    Default                     : No
    Forced                      : No

    Text
    ID                          : 4
    Format                      : UTF-8
    Codec ID                    : S_TEXT/UTF8
    Codec ID/Info               : UTF-8 Plain Text
    Duration                    : 2 h 17 min
    Bit rate                    : 37 b/s
    Count of elements           : 1161
    Stream size                 : 38.2 KiB (0%)
    Language                    : Spanish
    Default                     : No
    Forced                      : No

    Menu
    00:00:00.000                : en:Main Titles
    00:07:59.813                : en:The Goblin's Lair
    00:16:55.056                : en:Peter vs. Harry
    00:24:44.983                : en:Some Memory Impairment
    00:30:12.686                : en:The Review
    00:40:08.531                : en:Welcome Home Harry!
    00:49:24.587                : en:Armored Car
    00:59:27.773                : en:We Were Wrong
    01:06:34.574                : en:Bank Robbery
    01:15:23.436                : en:Calling A Woman
    01:22:16.723                : en:It's Over
    01:30:17.829                : en:Dirt In Your Eye
    01:40:46.374                : en:The Bell Tower
    01:49:10.836                : en:City In Crisis
    01:59:57.148                : en:Film's Extra
    02:06:11.355                : en:I Didn't Want This

  • Peso: 7.78 GiB

Sinopsis

Tercera entrega de las aventuras del joven Peter Parker (Maguire). Parece que Parker ha conseguido por fin el equilibrio entre su devoción por Mary Jane y sus deberes como superhéroe. Pero, de repente, su traje cambia volviéndose negro y aumentando sus poderes; también Peter se transforma, sacando el lado más oscuro y vengativo de su personalidad. Bajo la influencia de este nuevo traje, Peter deja de proteger a la gente que realmente lo quiere y se preocupa por él. En estas circunstancias, no tiene más remedio que elegir entre disfrutar del tentador poder del nuevo traje o seguir siendo el compasivo héroe de antes. Mientras tanto, dos temibles enemigos, Venom y el Hombre de Arena, utilizarán sus poderes para calmar su sed de venganza.

Ficha técnica

Video trailer de la película

Enlaces de descarga

Rip de Bluray

Descargar Spider-Man 3 (2007) [Open Matte] WEB-DL 1080p Latino – CMHDD




Aportes de DPeliculasHDmega la pass es:dpeliculashdmega.org Aportes de CinemaniaHD la pass es:cinemaniahdd.com
Guardado en : Acción , Aventura , Fantasía

Películas relacionadas

descargar Spider-Man 3 (2007) [Open Matte] WEB-DL 1080p Latino – CMHDD WEBDL 1080p gratis, Spider-Man 3 (2007) [Open Matte] WEB-DL 1080p Latino – CMHDD WEBDL mega 1 link, Spider-Man 3 (2007) [Open Matte] WEB-DL 1080p Latino – CMHDD WEBDL pelicula completa, descargar Spider-Man 3 (2007) [Open Matte] WEB-DL 1080p Latino – CMHDD WEBDL gratis en mega.

Spider-Man 3 (2007) [Open Matte] WEB-DL 1080p Latino – CMHDD pelicula full hd, Spider-Man 3 (2007) [Open Matte] WEB-DL 1080p Latino – CMHDD mega latino, Spider-Man 3 (2007) [Open Matte] WEB-DL 1080p Latino – CMHDD 4k latino, Spider-Man 3 (2007) [Open Matte] WEB-DL 1080p Latino – CMHDD pelicula completa, Spider-Man 3 (2007) [Open Matte] WEB-DL 1080p Latino – CMHDD descargar gratis, descargar Spider-Man 3 (2007) [Open Matte] WEB-DL 1080p Latino – CMHDD pelicula latino, Spider-Man 3 (2007) [Open Matte] WEB-DL 1080p Latino – CMHDD 1 link mega, Spider-Man 3 (2007) [Open Matte] WEB-DL 1080p Latino – CMHDD 1 link google drive, Spider-Man 3 (2007) [Open Matte] WEB-DL 1080p Latino – CMHDD hd 1080p latino.
Comentarios 1
  • EsWill - 28 agosto, 2021

    Hola Dracarys, mil gracias por subir las pelis en WEB-DL.