×

¿Problemas para descargar con Mozilla, EDGE? Deshabilita la opción "Abrir vinculos en una pestaña nueva" tal como lo muestra ésta imagen.

Spider-Man 3 (2007) Full HD 1080p Latino – CMHDD

356 vistas

Información de Spider-Man 3 (2007) Full HD 1080p Latino – CMHDD

Datos de la película

  • Calidad: Full 1080p
  • Audio: Español Latino AC3 5.1 BLURAY - Ingles DTS 5.1 BLURAY
  • Subtitulos: Español Latino PGS
  • Resolución: 1920x1080p
  • Formato: MKV
  • Codec: H.264
  • Encoder: Dracarys
  • Mediainfo: Clic para Mostrar Datos Ver
  • Format                      : Matroska
    Format version              : Version 4
    File size                   : 9.79 GiB
    Duration                    : 2 h 19 min
    Overall bit rate            : 10.1 Mb/s
    Movie name                  : Spider-Man 3 (2007) Full HD 1080p Latino - CMHDD
    Encoded date                : UTC 2021-08-25 23:31:17
    Writing application         : mkvmerge v17.0.0 ('Be Ur Friend') 64-bit
    Writing library             : libebml v1.3.5 + libmatroska v1.4.8

    Video
    ID                          : 1
    Format                      : AVC
    Format/Info                 : Advanced Video Codec
    Format profile              : High@L4.1
    Format settings             : CABAC / 4 Ref Frames
    Format settings, CABAC      : Yes
    Format settings, Reference  : 4 frames
    Codec ID                    : V_MPEG4/ISO/AVC
    Duration                    : 2 h 19 min
    Bit rate                    : 7 914 kb/s
    Width                       : 1 920 pixels
    Height                      : 1 080 pixels
    Display aspect ratio        : 16:9
    Frame rate mode             : Constant
    Frame rate                  : 23.976 (24000/1001) FPS
    Color space                 : YUV
    Chroma subsampling          : 4:2:0
    Bit depth                   : 8 bits
    Scan type                   : Progressive
    Bits/(Pixel*Frame)          : 0.159
    Stream size                 : 7.69 GiB (79%)
    Writing library             : x264 core 148 r2708 86b7198
    Encoding settings           : cabac=1 / ref=4 / deblock=1:0:0 / analyse=0x3:0x133 / me=esa / subme=10 / psy=1 / psy_rd=1.00:0.00 / mixed_ref=1 / me_range=24 / chroma_me=1 / trellis=2 / 8x8dct=1 / cqm=0 / deadzone=21,11 / fast_pskip=1 / chroma_qp_offset=-2 / threads=34 / lookahead_threads=5 / sliced_threads=0 / nr=0 / decimate=1 / interlaced=0 / bluray_compat=0 / constrained_intra=0 / bframes=8 / b_pyramid=2 / b_adapt=2 / b_bias=0 / direct=3 / weightb=1 / open_gop=0 / weightp=2 / keyint=240 / keyint_min=24 / scenecut=40 / intra_refresh=0 / rc_lookahead=60 / rc=crf / mbtree=1 / crf=20.0 / qcomp=0.60 / qpmin=0 / qpmax=69 / qpstep=4 / vbv_maxrate=62500 / vbv_bufsize=78125 / crf_max=0.0 / nal_hrd=none / filler=0 / ip_ratio=1.40 / aq=1:1.00
    Language                    : English
    Default                     : Yes
    Forced                      : No
    Color range                 : Limited
    Color primaries             : BT.709
    Transfer characteristics    : BT.709
    Matrix coefficients         : BT.709

    Audio #1
    ID                          : 2
    Format                      : AC-3
    Format/Info                 : Audio Coding 3
    Commercial name             : Dolby Digital
    Codec ID                    : A_AC3
    Duration                    : 2 h 19 min
    Bit rate mode               : Constant
    Bit rate                    : 640 kb/s
    Channel(s)                  : 6 channels
    Channel layout              : L R C LFE Ls Rs
    Sampling rate               : 48.0 kHz
    Frame rate                  : 31.250 FPS (1536 SPF)
    Compression mode            : Lossy
    Stream size                 : 637 MiB (6%)
    Language                    : Spanish
    Service kind                : Complete Main
    Default                     : Yes
    Forced                      : No

    Audio #2
    ID                          : 3
    Format                      : DTS
    Format/Info                 : Digital Theater Systems
    Codec ID                    : A_DTS
    Duration                    : 2 h 19 min
    Bit rate mode               : Constant
    Bit rate                    : 1 509 kb/s
    Channel(s)                  : 6 channels
    Channel layout              : C L R Ls Rs LFE
    Sampling rate               : 48.0 kHz
    Frame rate                  : 93.750 FPS (512 SPF)
    Bit depth                   : 16 bits
    Compression mode            : Lossy
    Stream size                 : 1.47 GiB (15%)
    Language                    : English
    Default                     : No
    Forced                      : No

    Text #1
    ID                          : 4
    Format                      : UTF-8
    Codec ID                    : S_TEXT/UTF8
    Codec ID/Info               : UTF-8 Plain Text
    Duration                    : 2 h 11 min
    Bit rate                    : 34 b/s
    Count of elements           : 1132
    Stream size                 : 33.3 KiB (0%)
    Language                    : Spanish
    Default                     : No
    Forced                      : No

    Text #2
    ID                          : 5
    Format                      : PGS
    Muxing mode                 : zlib
    Codec ID                    : S_HDMV/PGS
    Codec ID/Info               : Picture based subtitle format used on BDs/HD-DVDs
    Duration                    : 2 h 11 min
    Bit rate                    : 19.5 kb/s
    Count of elements           : 2264
    Stream size                 : 18.2 MiB (0%)
    Language                    : Spanish
    Default                     : No
    Forced                      : No

    Menu
    00:00:00.000                : :Chapter 1
    00:07:59.771                : :Chapter 2
    00:16:55.014                : :Chapter 3
    00:24:44.942                : :Chapter 4
    00:30:11.977                : :Chapter 5
    00:40:08.489                : :Chapter 6
    00:49:24.545                : :Chapter 7
    00:59:27.481                : :Chapter 8
    01:06:34.532                : :Chapter 9
    01:15:23.394                : :Chapter 10
    01:22:16.682                : :Chapter 11
    01:30:17.579                : :Chapter 12
    01:40:46.332                : :Chapter 13
    01:49:10.669                : :Chapter 14
    01:59:57.107                : :Chapter 15
    02:06:11.314                : :Chapter 16

  • Peso: 9.79 GiB

Sinopsis

Tercera entrega de las aventuras del joven Peter Parker (Maguire). Parece que Parker ha conseguido por fin el equilibrio entre su devoción por Mary Jane y sus deberes como superhéroe. Pero, de repente, su traje cambia volviéndose negro y aumentando sus poderes; también Peter se transforma, sacando el lado más oscuro y vengativo de su personalidad. Bajo la influencia de este nuevo traje, Peter deja de proteger a la gente que realmente lo quiere y se preocupa por él. En estas circunstancias, no tiene más remedio que elegir entre disfrutar del tentador poder del nuevo traje o seguir siendo el compasivo héroe de antes. Mientras tanto, dos temibles enemigos, Venom y el Hombre de Arena, utilizarán sus poderes para calmar su sed de venganza.

Ficha técnica

Video trailer de la película

Enlaces de descarga

Rip de Bluray

Descargar Spider-Man 3 (2007) Full HD 1080p Latino – CMHDD




Aportes de DPeliculasHDmega la pass es:dpeliculashdmega.org Aportes de CinemaniaHD la pass es:cinemaniahdd.com
Guardado en : Acción , Aventura , Fantasía

Películas relacionadas

descargar Spider-Man 3 (2007) Full HD 1080p Latino – CMHDD Full 1080p 1080p gratis, Spider-Man 3 (2007) Full HD 1080p Latino – CMHDD Full 1080p mega 1 link, Spider-Man 3 (2007) Full HD 1080p Latino – CMHDD Full 1080p pelicula completa, descargar Spider-Man 3 (2007) Full HD 1080p Latino – CMHDD Full 1080p gratis en mega.

Spider-Man 3 (2007) Full HD 1080p Latino – CMHDD pelicula full hd, Spider-Man 3 (2007) Full HD 1080p Latino – CMHDD mega latino, Spider-Man 3 (2007) Full HD 1080p Latino – CMHDD 4k latino, Spider-Man 3 (2007) Full HD 1080p Latino – CMHDD pelicula completa, Spider-Man 3 (2007) Full HD 1080p Latino – CMHDD descargar gratis, descargar Spider-Man 3 (2007) Full HD 1080p Latino – CMHDD pelicula latino, Spider-Man 3 (2007) Full HD 1080p Latino – CMHDD 1 link mega, Spider-Man 3 (2007) Full HD 1080p Latino – CMHDD 1 link google drive, Spider-Man 3 (2007) Full HD 1080p Latino – CMHDD hd 1080p latino.
Comentarios 0