×

¿Problemas para descargar con Mozilla, EDGE? Deshabilita la opción "Abrir vinculos en una pestaña nueva" tal como lo muestra ésta imagen.

Spider-Man (2002) REMUX 1080p Latino – CMHDD

345 vistas

Información de Spider-Man (2002) REMUX 1080p Latino – CMHDD

Datos de la película

  • Calidad: Full 1080p
  • Audio: Español Latino AC3 5.1 BLURAY - Ingles AC3 5.1 BLURAY
  • Subtitulos: Español Latino PGS
  • Resolución: 1920x1080p
  • Formato: MKV
  • Codec: H.264
  • Encoder: Dracarys
  • Mediainfo: Clic para Mostrar Datos Ver
  • Format                      : Matroska
    Format version              : Version 4
    File size                   : 32.0 GiB
    Duration                    : 2 h 1 min
    Overall bit rate mode       : Variable
    Overall bit rate            : 37.7 Mb/s
    Movie name                  : Spider-Man (2002) REMUX 1080p Latino - CMHDD
    Encoded date                : UTC 2021-08-29 03:03:19
    Writing application         : mkvmerge v17.0.0 ('Be Ur Friend') 64-bit
    Writing library             : libebml v1.3.5 + libmatroska v1.4.8

    Video
    ID                          : 1
    Format                      : AVC
    Format/Info                 : Advanced Video Codec
    Format profile              : High@L4.1
    Format settings             : CABAC / 2 Ref Frames
    Format settings, CABAC      : Yes
    Format settings, Reference  : 2 frames
    Codec ID                    : V_MPEG4/ISO/AVC
    Duration                    : 2 h 1 min
    Bit rate mode               : Variable
    Bit rate                    : 34.7 Mb/s
    Width                       : 1 920 pixels
    Height                      : 1 080 pixels
    Display aspect ratio        : 16:9
    Frame rate mode             : Constant
    Frame rate                  : 23.976 (24000/1001) FPS
    Color space                 : YUV
    Chroma subsampling          : 4:2:0
    Bit depth                   : 8 bits
    Scan type                   : Progressive
    Bits/(Pixel*Frame)          : 0.697
    Stream size                 : 29.4 GiB (92%)
    Default                     : Yes
    Forced                      : No

    Audio #1
    ID                          : 2
    Format                      : MLP FBA
    Format/Info                 : Meridian Lossless Packing FBA
    Commercial name             : Dolby TrueHD
    Codec ID                    : A_TRUEHD
    Duration                    : 2 h 1 min
    Bit rate mode               : Variable
    Bit rate                    : 1 712 kb/s
    Maximum bit rate            : 2 877 kb/s
    Channel(s)                  : 6 channels
    Channel layout              : L R C LFE Ls Rs
    Sampling rate               : 48.0 kHz
    Frame rate                  : 1 200.000 FPS (40 SPF)
    Compression mode            : Lossless
    Delay relative to video     : 1 ms
    Stream size                 : 1.45 GiB (5%)
    Language                    : English
    Default                     : No
    Forced                      : No

    Audio #2
    ID                          : 3
    Format                      : AC-3
    Format/Info                 : Audio Coding 3
    Commercial name             : Dolby Digital
    Codec ID                    : A_AC3
    Duration                    : 2 h 1 min
    Bit rate mode               : Constant
    Bit rate                    : 640 kb/s
    Channel(s)                  : 6 channels
    Channel layout              : L R C LFE Ls Rs
    Sampling rate               : 48.0 kHz
    Frame rate                  : 31.250 FPS (1536 SPF)
    Compression mode            : Lossy
    Stream size                 : 555 MiB (2%)
    Language                    : Spanish
    Service kind                : Complete Main
    Default                     : Yes
    Forced                      : No

    Audio #3
    ID                          : 4
    Format                      : AC-3
    Format/Info                 : Audio Coding 3
    Commercial name             : Dolby Digital
    Codec ID                    : A_AC3
    Duration                    : 2 h 1 min
    Bit rate mode               : Constant
    Bit rate                    : 640 kb/s
    Channel(s)                  : 6 channels
    Channel layout              : L R C LFE Ls Rs
    Sampling rate               : 48.0 kHz
    Frame rate                  : 31.250 FPS (1536 SPF)
    Compression mode            : Lossy
    Delay relative to video     : 32 ms
    Stream size                 : 555 MiB (2%)
    Language                    : English
    Service kind                : Complete Main
    Default                     : No
    Forced                      : No

    Text
    ID                          : 5
    Format                      : PGS
    Muxing mode                 : zlib
    Codec ID                    : S_HDMV/PGS
    Codec ID/Info               : Picture based subtitle format used on BDs/HD-DVDs
    Duration                    : 1 h 54 min
    Bit rate                    : 27.8 kb/s
    Count of elements           : 2393
    Stream size                 : 22.8 MiB (0%)
    Language                    : Spanish
    Default                     : No
    Forced                      : No

    Menu
    00:00:00.000                : en:Chapter 1
    00:06:29.472                : en:Chapter 2
    00:09:22.895                : en:Chapter 3
    00:14:56.186                : en:Chapter 4
    00:17:50.652                : en:Chapter 5
    00:21:53.603                : en:Chapter 6
    00:23:28.615                : en:Chapter 7
    00:25:18.767                : en:Chapter 8
    00:34:35.114                : en:Chapter 9
    00:40:22.169                : en:Chapter 10
    00:41:44.126                : en:Chapter 11
    00:43:13.882                : en:Chapter 12
    00:44:40.010                : en:Chapter 13
    00:54:32.978                : en:Chapter 14
    00:55:52.557                : en:Chapter 15
    01:00:48.936                : en:Chapter 16
    01:04:20.773                : en:Chapter 17
    01:05:57.036                : en:Chapter 18
    01:12:12.369                : en:Chapter 19
    01:14:18.871                : en:Chapter 20
    01:15:48.669                : en:Chapter 21
    01:19:35.520                : en:Chapter 22
    01:22:06.463                : en:Chapter 23
    01:25:13.608                : en:Chapter 24
    01:30:39.225                : en:Chapter 25
    01:39:36.679                : en:Chapter 26
    01:45:08.385                : en:Chapter 27
    01:50:27.829                : en:Chapter 28

  • Peso: 32.0 GiB

Sinopsis

Peter Parker es un joven y tímido estudiante que vive con su tía May y su tío Ben desde la muerte de sus padres. Un día es mordido por una araña que ha sido modificada genéticamente, descubriendo al día siguiente que posee unos poderes poco habituales: tiene la fuerza y agilidad de una araña.

Ficha técnica

Video trailer de la película

Enlaces de descarga

Rip de Bluray

Descargar Spider-Man (2002) REMUX 1080p Latino – CMHDD


Aportes de DPeliculasHDmega la pass es:dpeliculashdmega.org Aportes de CinemaniaHD la pass es:cinemaniahdd.com
Guardado en : Acción , Fantasía

Películas relacionadas

descargar Spider-Man (2002) REMUX 1080p Latino – CMHDD Full 1080p 1080p gratis, Spider-Man (2002) REMUX 1080p Latino – CMHDD Full 1080p mega 1 link, Spider-Man (2002) REMUX 1080p Latino – CMHDD Full 1080p pelicula completa, descargar Spider-Man (2002) REMUX 1080p Latino – CMHDD Full 1080p gratis en mega.

Spider-Man (2002) REMUX 1080p Latino – CMHDD pelicula full hd, Spider-Man (2002) REMUX 1080p Latino – CMHDD mega latino, Spider-Man (2002) REMUX 1080p Latino – CMHDD 4k latino, Spider-Man (2002) REMUX 1080p Latino – CMHDD pelicula completa, Spider-Man (2002) REMUX 1080p Latino – CMHDD descargar gratis, descargar Spider-Man (2002) REMUX 1080p Latino – CMHDD pelicula latino, Spider-Man (2002) REMUX 1080p Latino – CMHDD 1 link mega, Spider-Man (2002) REMUX 1080p Latino – CMHDD 1 link google drive, Spider-Man (2002) REMUX 1080p Latino – CMHDD hd 1080p latino.
Comentarios 0