×

¿Problemas para descargar con Mozilla, EDGE? Deshabilita la opción "Abrir vinculos en una pestaña nueva" tal como lo muestra ésta imagen.

Spider-Man (2002) Full HD 1080p Latino – CMHDD

441 vistas

Información de Spider-Man (2002) Full HD 1080p Latino – CMHDD

Datos de la película

  • Calidad: Full 1080p
  • Audio: Español Latino AC3 5.1 BLURAY - Ingles AC3 5.1 BLURAY
  • Subtitulos: Español Latino PGS
  • Resolución: 1920x1080p
  • Formato: MKV
  • Codec: H.264
  • Encoder: Dracarys
  • Mediainfo: Clic para Mostrar Datos Ver
  • Format                      : Matroska
    Format version              : Version 4
    File size                   : 11.2 GiB
    Duration                    : 2 h 1 min
    Overall bit rate            : 13.3 Mb/s
    Movie name                  : Spider-Man (2002) Full HD 1080p Latino - CMHDD
    Encoded date                : UTC 2021-08-25 23:23:12
    Writing application         : mkvmerge v17.0.0 ('Be Ur Friend') 64-bit
    Writing library             : libebml v1.3.5 + libmatroska v1.4.8

    Video
    ID                          : 1
    Format                      : AVC
    Format/Info                 : Advanced Video Codec
    Format profile              : High@L4.1
    Format settings             : CABAC / 4 Ref Frames
    Format settings, CABAC      : Yes
    Format settings, Reference  : 4 frames
    Codec ID                    : V_MPEG4/ISO/AVC
    Duration                    : 2 h 1 min
    Bit rate                    : 12.0 Mb/s
    Width                       : 1 920 pixels
    Height                      : 1 080 pixels
    Display aspect ratio        : 16:9
    Frame rate mode             : Constant
    Frame rate                  : 23.976 (24000/1001) FPS
    Color space                 : YUV
    Chroma subsampling          : 4:2:0
    Bit depth                   : 8 bits
    Scan type                   : Progressive
    Bits/(Pixel*Frame)          : 0.241
    Stream size                 : 10.1 GiB (90%)
    Writing library             : x264 core 148 r2708 86b7198
    Encoding settings           : cabac=1 / ref=4 / deblock=1:0:0 / analyse=0x3:0x133 / me=esa / subme=10 / psy=1 / psy_rd=1.00:0.00 / mixed_ref=1 / me_range=24 / chroma_me=1 / trellis=2 / 8x8dct=1 / cqm=0 / deadzone=21,11 / fast_pskip=1 / chroma_qp_offset=-2 / threads=34 / lookahead_threads=5 / sliced_threads=0 / nr=0 / decimate=1 / interlaced=0 / bluray_compat=0 / constrained_intra=0 / bframes=8 / b_pyramid=2 / b_adapt=2 / b_bias=0 / direct=3 / weightb=1 / open_gop=0 / weightp=2 / keyint=240 / keyint_min=24 / scenecut=40 / intra_refresh=0 / rc_lookahead=60 / rc=crf / mbtree=1 / crf=20.0 / qcomp=0.60 / qpmin=0 / qpmax=69 / qpstep=4 / vbv_maxrate=62500 / vbv_bufsize=78125 / crf_max=0.0 / nal_hrd=none / filler=0 / ip_ratio=1.40 / aq=1:1.00
    Language                    : English
    Default                     : Yes
    Forced                      : No
    Color range                 : Limited
    Color primaries             : BT.709
    Transfer characteristics    : BT.709
    Matrix coefficients         : BT.709

    Audio #1
    ID                          : 2
    Format                      : AC-3
    Format/Info                 : Audio Coding 3
    Commercial name             : Dolby Digital
    Codec ID                    : A_AC3
    Duration                    : 2 h 1 min
    Bit rate mode               : Constant
    Bit rate                    : 640 kb/s
    Channel(s)                  : 6 channels
    Channel layout              : L R C LFE Ls Rs
    Sampling rate               : 48.0 kHz
    Frame rate                  : 31.250 FPS (1536 SPF)
    Compression mode            : Lossy
    Stream size                 : 555 MiB (5%)
    Language                    : Spanish
    Service kind                : Complete Main
    Default                     : Yes
    Forced                      : No

    Audio #2
    ID                          : 3
    Format                      : AC-3
    Format/Info                 : Audio Coding 3
    Commercial name             : Dolby Digital
    Codec ID                    : A_AC3
    Duration                    : 2 h 1 min
    Bit rate mode               : Constant
    Bit rate                    : 640 kb/s
    Channel(s)                  : 6 channels
    Channel layout              : L R C LFE Ls Rs
    Sampling rate               : 48.0 kHz
    Frame rate                  : 31.250 FPS (1536 SPF)
    Compression mode            : Lossy
    Stream size                 : 555 MiB (5%)
    Language                    : English
    Service kind                : Complete Main
    Default                     : No
    Forced                      : No

    Text #1
    ID                          : 4
    Format                      : UTF-8
    Codec ID                    : S_TEXT/UTF8
    Codec ID/Info               : UTF-8 Plain Text
    Duration                    : 1 h 54 min
    Bit rate                    : 48 b/s
    Count of elements           : 1184
    Stream size                 : 41.0 KiB (0%)
    Language                    : Spanish
    Default                     : No
    Forced                      : No

    Text #2
    ID                          : 5
    Format                      : PGS
    Muxing mode                 : zlib
    Codec ID                    : S_HDMV/PGS
    Codec ID/Info               : Picture based subtitle format used on BDs/HD-DVDs
    Duration                    : 2 h 0 min
    Bit rate                    : 26.5 kb/s
    Count of elements           : 2392
    Stream size                 : 22.8 MiB (0%)
    Language                    : Spanish
    Default                     : No
    Forced                      : No

    Menu
    00:00:00.000                : :Chapter 1
    00:06:29.472                : :Chapter 2
    00:09:22.937                : :Chapter 3
    00:14:56.187                : :Chapter 4
    00:17:50.695                : :Chapter 5
    00:21:53.604                : :Chapter 6
    00:23:28.616                : :Chapter 7
    00:25:18.767                : :Chapter 8
    00:34:35.115                : :Chapter 9
    00:40:22.170                : :Chapter 10
    00:41:44.127                : :Chapter 11
    00:43:13.883                : :Chapter 12
    00:44:40.011                : :Chapter 13
    00:54:32.978                : :Chapter 14
    00:55:52.558                : :Chapter 15
    01:00:48.937                : :Chapter 16
    01:04:20.774                : :Chapter 17
    01:05:57.036                : :Chapter 18
    01:12:12.370                : :Chapter 19
    01:14:18.871                : :Chapter 20
    01:15:48.711                : :Chapter 21
    01:19:35.521                : :Chapter 22
    01:22:06.463                : :Chapter 23
    01:25:13.609                : :Chapter 24
    01:30:39.225                : :Chapter 25
    01:39:36.721                : :Chapter 26
    01:45:08.385                : :Chapter 27
    01:50:27.830                : :Chapter 28

  • Peso: 11.2 GiB

Sinopsis

Peter Parker es un joven y tímido estudiante que vive con su tía May y su tío Ben desde la muerte de sus padres. Un día es mordido por una araña que ha sido modificada genéticamente, descubriendo al día siguiente que posee unos poderes poco habituales: tiene la fuerza y agilidad de una araña.

Ficha técnica

Video trailer de la película

Enlaces de descarga

Rip de Bluray

Descargar Spider-Man (2002) Full HD 1080p Latino – CMHDD




Aportes de DPeliculasHDmega la pass es:dpeliculashdmega.org Aportes de CinemaniaHD la pass es:cinemaniahdd.com
Guardado en : Acción , Fantasía

Películas relacionadas

descargar Spider-Man (2002) Full HD 1080p Latino – CMHDD Full 1080p 1080p gratis, Spider-Man (2002) Full HD 1080p Latino – CMHDD Full 1080p mega 1 link, Spider-Man (2002) Full HD 1080p Latino – CMHDD Full 1080p pelicula completa, descargar Spider-Man (2002) Full HD 1080p Latino – CMHDD Full 1080p gratis en mega.

Spider-Man (2002) Full HD 1080p Latino – CMHDD pelicula full hd, Spider-Man (2002) Full HD 1080p Latino – CMHDD mega latino, Spider-Man (2002) Full HD 1080p Latino – CMHDD 4k latino, Spider-Man (2002) Full HD 1080p Latino – CMHDD pelicula completa, Spider-Man (2002) Full HD 1080p Latino – CMHDD descargar gratis, descargar Spider-Man (2002) Full HD 1080p Latino – CMHDD pelicula latino, Spider-Man (2002) Full HD 1080p Latino – CMHDD 1 link mega, Spider-Man (2002) Full HD 1080p Latino – CMHDD 1 link google drive, Spider-Man (2002) Full HD 1080p Latino – CMHDD hd 1080p latino.
Comentarios 0