×

¿Problemas para descargar con Mozilla, EDGE? Deshabilita la opción "Abrir vinculos en una pestaña nueva" tal como lo muestra ésta imagen.

Spider-Man 2 (2004) EXTENDED Full HD 1080p Latino – CMHDD

457 vistas

Información de Spider-Man 2 (2004) EXTENDED Full HD 1080p Latino – CMHDD

Datos de la película

  • Calidad: Full 1080p
  • Audio: Español Latino AC3 5.1 BLURAY - Ingles AC3 5.1 BLURAY
  • Subtitulos: Español Latino PGS
  • Resolución: 1920x1080p
  • Formato: MKV
  • Codec: H.264
  • Encoder: Dracarys
  • Mediainfo: Clic para Mostrar Datos Ver
  • Format                      : Matroska
    Format version              : Version 4
    File size                   : 10.2 GiB
    Duration                    : 2 h 15 min
    Overall bit rate mode       : Variable
    Overall bit rate            : 10.8 Mb/s
    Movie name                  : Spider-Man 2 (2004) EXTENDED Full HD 1080p Latino - CMHDD
    Encoded date                : UTC 2021-09-05 16:18:36
    Writing application         : mkvmerge v17.0.0 ('Be Ur Friend') 64-bit
    Writing library             : libebml v1.3.5 + libmatroska v1.4.8

    Video
    ID                          : 1
    Format                      : AVC
    Format/Info                 : Advanced Video Codec
    Format profile              : High@L4.1
    Format settings             : CABAC / 4 Ref Frames
    Format settings, CABAC      : Yes
    Format settings, Reference  : 4 frames
    Codec ID                    : V_MPEG4/ISO/AVC
    Duration                    : 2 h 15 min
    Bit rate                    : 7 993 kb/s
    Width                       : 1 920 pixels
    Height                      : 1 080 pixels
    Display aspect ratio        : 16:9
    Frame rate mode             : Constant
    Frame rate                  : 23.976 (24000/1001) FPS
    Color space                 : YUV
    Chroma subsampling          : 4:2:0
    Bit depth                   : 8 bits
    Scan type                   : Progressive
    Bits/(Pixel*Frame)          : 0.161
    Stream size                 : 7.58 GiB (74%)
    Writing library             : x264 core 163 r3059 b684ebe0
    Encoding settings           : cabac=1 / ref=4 / deblock=1:0:0 / analyse=0x3:0x133 / me=tesa / subme=11 / psy=1 / psy_rd=1.00:0.00 / mixed_ref=1 / me_range=24 / chroma_me=1 / trellis=2 / 8x8dct=1 / cqm=0 / deadzone=21,11 / fast_pskip=0 / chroma_qp_offset=-2 / threads=24 / lookahead_threads=6 / sliced_threads=0 / nr=0 / decimate=1 / interlaced=0 / bluray_compat=0 / constrained_intra=0 / bframes=16 / b_pyramid=2 / b_adapt=2 / b_bias=0 / direct=3 / weightb=1 / open_gop=0 / weightp=2 / keyint=240 / keyint_min=24 / scenecut=40 / intra_refresh=0 / rc_lookahead=60 / rc=crf / mbtree=1 / crf=20.0 / qcomp=0.60 / qpmin=0 / qpmax=69 / qpstep=4 / vbv_maxrate=62500 / vbv_bufsize=78125 / crf_max=0.0 / nal_hrd=none / filler=0 / ip_ratio=1.40 / aq=1:1.00
    Default                     : Yes
    Forced                      : No
    Color range                 : Limited
    Color primaries             : BT.709
    Transfer characteristics    : BT.709
    Matrix coefficients         : BT.709

    Audio #1
    ID                          : 2
    Format                      : DTS XLL
    Format/Info                 : Digital Theater Systems
    Commercial name             : DTS-HD Master Audio
    Codec ID                    : A_DTS
    Duration                    : 2 h 15 min
    Bit rate mode               : Variable
    Bit rate                    : 2 331 kb/s
    Channel(s)                  : 6 channels
    Channel layout              : C L R Ls Rs LFE
    Sampling rate               : 48.0 kHz
    Frame rate                  : 93.750 FPS (512 SPF)
    Bit depth                   : 16 bits
    Compression mode            : Lossless
    Stream size                 : 2.21 GiB (22%)
    Language                    : English
    Default                     : No
    Forced                      : No

    Audio #2
    ID                          : 3
    Format                      : AC-3
    Format/Info                 : Audio Coding 3
    Commercial name             : Dolby Digital
    Codec ID                    : A_AC3
    Duration                    : 2 h 15 min
    Bit rate mode               : Constant
    Bit rate                    : 448 kb/s
    Channel(s)                  : 6 channels
    Channel layout              : L R C LFE Ls Rs
    Sampling rate               : 48.0 kHz
    Frame rate                  : 31.250 FPS (1536 SPF)
    Compression mode            : Lossy
    Delay relative to video     : 400 ms
    Stream size                 : 435 MiB (4%)
    Language                    : Spanish
    Service kind                : Complete Main
    Default                     : Yes
    Forced                      : No

    Text
    ID                          : 4
    Format                      : PGS
    Muxing mode                 : zlib
    Codec ID                    : S_HDMV/PGS
    Codec ID/Info               : Picture based subtitle format used on BDs/HD-DVDs
    Duration                    : 2 h 9 min
    Bit rate                    : 22.5 kb/s
    Count of elements           : 2446
    Stream size                 : 20.8 MiB (0%)
    Language                    : Spanish
    Default                     : No
    Forced                      : No

    Menu
    00:00:00.000                : :Main Titles
    00:03:27.457                : :Pizza Man
    00:08:13.535                : :J. Jonah Jameson
    00:09:41.456                : :Dr. Connors
    00:10:54.946                : :"Surprise!"
    00:16:10.845                : :Peter and Mj in the Backyard
    00:19:24.664                : :Mr. Ditkovich
    00:21:19.737                : :Otto Octavius
    00:25:05.629                : :Wash 'n Dry
    00:25:43.667                : :The Importance of Being Earnest
    00:27:16.844                : :Car Chase
    00:29:17.798                : :The Importance of Being on Time
    00:31:39.648                : :Web Failure
    00:32:47.132                : :The Elevator
    00:35:20.910                : :Peter Calls Mj
    00:37:27.120                : :Otto's Demonstration
    00:44:07.770                : :Horror Hospital
    00:46:11.143                : :Ock Awakens to the Horror
    00:47:29.597                : :New Villain in Town
    00:49:01.188                : :Doc Ock's Lair
    00:51:17.449                : :Bank Heist
    00:54:21.717                : :Battle Building
    00:57:42.209                : :Planetarium Party
    01:02:44.344                : :Spidey Crash Lands in Alley
    01:04:15.935                : :Ock Rebuilds
    01:06:08.298                : :Diagnosis
    01:08:26.269                : :Spider-Man No More
    01:10:49.620                : :"Raindrops Keep Falling on My Head"
    01:12:33.641                : :Peter Attends Mj's Play
    01:15:23.436                : :Jameson Gets the Suit
    01:17:11.293                : :Peter's Confession
    01:21:21.794                : :One More Little Chore
    01:24:15.717                : :Peter and the Burning Building
    01:26:49.538                : :Frustration
    01:28:59.334                : :Peter and Aunt May in the Backyard
    01:32:49.147                : :"My Back! My Back!"
    01:34:22.740                : :Mj Doubts John's The One
    01:35:44.656                : :"Do You Love Me, or Not?"
    01:38:13.513                : :Enter the Octopus
    01:40:40.284                : :He's Back
    01:41:46.517                : :Clock Tower Fight
    01:42:44.241                : :The Train
    01:45:32.910                : :A Train to Catch
    01:48:16.448                : :Grateful Train Passengers
    01:50:58.652                : :Harry Learns the Truth About Peter
    01:53:12.911                : :The Final Confrontation
    01:56:23.643                : :Peter Appeals to Otto
    02:01:27.655                : :Web Love
    02:03:50.506                : :The Return of the Green Goblin
    02:06:17.320                : :Here Comes the Bride
    02:10:14.473                : :The Final Swing
    02:11:03.731                : :End Credits

  • Peso: 10.2 GiB

Sinopsis

Han pasado dos años desde que el tranquilo Peter Parker dejó a Mary Jane Watson, su gran amor, y decidió seguir asumir sus responsabilidades como Spider-Man. Peter debe afrontar nuevos desafíos mientras lucha contra el don y la maldición de sus poderes equilibrando sus dos identidades: el escurridizo superhéroe Spider-Man y el estudiante universitario. Las relaciones con las personas que más aprecia están ahora en peligro de ser descubiertas con la aparición del poderoso villano de múltiples tentáculos Doctor Octopus, «Doc Ock». Su atracción por M.J. se hace más fuerte mientras lucha contra el impulso de abandonar su vida secreta y declarar su amor. Mientras tanto, M.J. ha seguido con su vida. Se ha embarcado en su carrera de actriz y tiene un nuevo hombre en su vida. La relación de Peter con su mejor amigo Harry Osborn se ha alejado por la creciente venganza de Harry contra Spider-Man, al que considera responsable de la muerte de su padre.

Ficha técnica

Video trailer de la película

Enlaces de descarga

Rip de Bluray

Descargar Spider-Man 2 (2004) EXTENDED Full HD 1080p Latino – CMHDD




Aportes de DPeliculasHDmega la pass es:dpeliculashdmega.org Aportes de CinemaniaHD la pass es:cinemaniahdd.com
Guardado en : Acción , Aventura , Fantasía

Películas relacionadas

descargar Spider-Man 2 (2004) EXTENDED Full HD 1080p Latino – CMHDD Full 1080p 1080p gratis, Spider-Man 2 (2004) EXTENDED Full HD 1080p Latino – CMHDD Full 1080p mega 1 link, Spider-Man 2 (2004) EXTENDED Full HD 1080p Latino – CMHDD Full 1080p pelicula completa, descargar Spider-Man 2 (2004) EXTENDED Full HD 1080p Latino – CMHDD Full 1080p gratis en mega.

Spider-Man 2 (2004) EXTENDED Full HD 1080p Latino – CMHDD pelicula full hd, Spider-Man 2 (2004) EXTENDED Full HD 1080p Latino – CMHDD mega latino, Spider-Man 2 (2004) EXTENDED Full HD 1080p Latino – CMHDD 4k latino, Spider-Man 2 (2004) EXTENDED Full HD 1080p Latino – CMHDD pelicula completa, Spider-Man 2 (2004) EXTENDED Full HD 1080p Latino – CMHDD descargar gratis, descargar Spider-Man 2 (2004) EXTENDED Full HD 1080p Latino – CMHDD pelicula latino, Spider-Man 2 (2004) EXTENDED Full HD 1080p Latino – CMHDD 1 link mega, Spider-Man 2 (2004) EXTENDED Full HD 1080p Latino – CMHDD 1 link google drive, Spider-Man 2 (2004) EXTENDED Full HD 1080p Latino – CMHDD hd 1080p latino.
Comentarios 0