×

¿Problemas para descargar con Mozilla, EDGE? Deshabilita la opción "Abrir vinculos en una pestaña nueva" tal como lo muestra ésta imagen.

Spell (2020) REMUX 1080p Latino – CMHDD

611 vistas

Información de Spell (2020) REMUX 1080p Latino – CMHDD

Datos de la película

  • Calidad: Full 1080p
  • Audio: Español Latino AC3 5.1 WEB-DL - Ingles DTS 5.1 BLURAY
  • Subtitulos: Español Latino SRT- FORZADOS SRT
  • Resolución: 1920x1080p
  • Formato: MKV
  • Codec: H.264
  • Encoder: Dracarys
  • Mediainfo: Clic para Mostrar Datos Ver
  • Format                      : Matroska
    Format version              : Version 4
    File size                   : 18.2 GiB
    Duration                    : 1 h 31 min
    Overall bit rate mode       : Variable
    Overall bit rate            : 28.6 Mb/s
    Movie name                  : Spell (2020) REMUX 1080p Latino - CMHDD
    Encoded date                : UTC 2022-01-12 17:17:17
    Writing application         : mkvmerge v17.0.0 ('Be Ur Friend') 64-bit
    Writing library             : libebml v1.3.5 + libmatroska v1.4.8

    Video
    ID                          : 1
    Format                      : AVC
    Format/Info                 : Advanced Video Codec
    Format profile              : High@L4.1
    Format settings             : CABAC / 3 Ref Frames
    Format settings, CABAC      : Yes
    Format settings, Reference  : 3 frames
    Codec ID                    : V_MPEG4/ISO/AVC
    Duration                    : 1 h 31 min
    Bit rate mode               : Variable
    Bit rate                    : 24.5 Mb/s
    Maximum bit rate            : 40.0 Mb/s
    Width                       : 1 920 pixels
    Height                      : 1 080 pixels
    Display aspect ratio        : 16:9
    Frame rate mode             : Constant
    Frame rate                  : 23.976 (24000/1001) FPS
    Color space                 : YUV
    Chroma subsampling          : 4:2:0
    Bit depth                   : 8 bits
    Scan type                   : Progressive
    Bits/(Pixel*Frame)          : 0.494
    Stream size                 : 15.7 GiB (86%)
    Default                     : Yes
    Forced                      : No
    Color range                 : Limited
    Color primaries             : BT.709
    Transfer characteristics    : BT.709
    Matrix coefficients         : BT.709

    Audio #1
    ID                          : 2
    Format                      : AC-3
    Format/Info                 : Audio Coding 3
    Commercial name             : Dolby Digital
    Codec ID                    : A_AC3
    Duration                    : 1 h 31 min
    Bit rate mode               : Constant
    Bit rate                    : 384 kb/s
    Channel(s)                  : 6 channels
    Channel layout              : L R C LFE Ls Rs
    Sampling rate               : 48.0 kHz
    Frame rate                  : 31.250 FPS (1536 SPF)
    Compression mode            : Lossy
    Stream size                 : 251 MiB (1%)
    Language                    : Spanish
    Service kind                : Complete Main
    Default                     : Yes
    Forced                      : No

    Audio #2
    ID                          : 3
    Format                      : DTS XLL
    Format/Info                 : Digital Theater Systems
    Commercial name             : DTS-HD Master Audio
    Codec ID                    : A_DTS
    Duration                    : 1 h 31 min
    Bit rate mode               : Variable
    Bit rate                    : 3 606 kb/s
    Channel(s)                  : 6 channels
    Channel layout              : C L R Ls Rs LFE
    Sampling rate               : 48.0 kHz
    Frame rate                  : 93.750 FPS (512 SPF)
    Bit depth                   : 24 bits
    Compression mode            : Lossless
    Stream size                 : 2.30 GiB (13%)
    Language                    : English
    Default                     : No
    Forced                      : No

    Text #1
    ID                          : 4
    Format                      : PGS
    Muxing mode                 : zlib
    Codec ID                    : S_HDMV/PGS
    Codec ID/Info               : Picture based subtitle format used on BDs/HD-DVDs
    Duration                    : 1 h 30 min
    Bit rate                    : 23.6 kb/s
    Count of elements           : 1488
    Stream size                 : 15.3 MiB (0%)
    Language                    : Spanish
    Default                     : No
    Forced                      : No

    Text #2
    ID                          : 5
    Format                      : UTF-8
    Codec ID                    : S_TEXT/UTF8
    Codec ID/Info               : UTF-8 Plain Text
    Duration                    : 1 h 30 min
    Bit rate                    : 0 b/s
    Count of elements           : 5
    Stream size                 : 109 Bytes (0%)
    Title                       : F
    Language                    : Spanish
    Default                     : No
    Forced                      : No

    Text #3
    ID                          : 6
    Format                      : UTF-8
    Codec ID                    : S_TEXT/UTF8
    Codec ID/Info               : UTF-8 Plain Text
    Duration                    : 1 h 30 min
    Bit rate                    : 39 b/s
    Count of elements           : 744
    Stream size                 : 26.2 KiB (0%)
    Language                    : Spanish
    Default                     : No
    Forced                      : No

    Menu
    00:00:00.000                : en:Chapter 1
    00:06:27.095                : en:Chapter 2
    00:16:16.850                : en:Chapter 3
    00:25:30.779                : en:Chapter 4
    00:33:16.869                : en:Chapter 5
    00:41:28.819                : en:Chapter 6
    00:49:07.402                : en:Chapter 7
    00:58:32.550                : en:Chapter 8
    01:05:45.983                : en:Chapter 9
    01:11:00.214                : en:Chapter 10
    01:16:46.810                : en:Chapter 11
    01:24:28.730                : en:Chapter 12

  • Peso: 18.2 GiB

Sinopsis

Un padre sobrevive a un accidente de avión en los Apalaches, pero sospecha de la pareja de ancianos que le cuidan con remedios tradicionales.

Ficha técnica

Video trailer de la película

Enlaces de descarga

Rip de Bluray

Descargar Spell (2020) REMUX 1080p Latino – CMHDD


Aportes de DPeliculasHDmega la pass es:dpeliculashdmega.org Aportes de CinemaniaHD la pass es:cinemaniahdd.com
Guardado en : Suspenso , Terror

Películas relacionadas

descargar Spell (2020) REMUX 1080p Latino – CMHDD Full 1080p 1080p gratis, Spell (2020) REMUX 1080p Latino – CMHDD Full 1080p mega 1 link, Spell (2020) REMUX 1080p Latino – CMHDD Full 1080p pelicula completa, descargar Spell (2020) REMUX 1080p Latino – CMHDD Full 1080p gratis en mega.

Spell (2020) REMUX 1080p Latino – CMHDD pelicula full hd, Spell (2020) REMUX 1080p Latino – CMHDD mega latino, Spell (2020) REMUX 1080p Latino – CMHDD 4k latino, Spell (2020) REMUX 1080p Latino – CMHDD pelicula completa, Spell (2020) REMUX 1080p Latino – CMHDD descargar gratis, descargar Spell (2020) REMUX 1080p Latino – CMHDD pelicula latino, Spell (2020) REMUX 1080p Latino – CMHDD 1 link mega, Spell (2020) REMUX 1080p Latino – CMHDD 1 link google drive, Spell (2020) REMUX 1080p Latino – CMHDD hd 1080p latino.
Comentarios 0