×

¿Problemas para descargar con Mozilla, EDGE? Deshabilita la opción "Abrir vinculos en una pestaña nueva" tal como lo muestra ésta imagen.

Speed (1994) REMUX 4K HDR Latino – CMHDD

248 vistas

Información de Speed (1994) REMUX 4K HDR Latino – CMHDD

Datos de la película

  • Calidad: 4K HDR
  • Audio: Español Latino AC3 5.1 BLURAY - Ingles DTS 5.1 BLURAY
  • Subtitulos: Español Latino PGS
  • Resolución: 3840x2160p
  • Formato: MKV
  • Codec: H.264
  • Encoder: Dracarys
  • Mediainfo: Clic para Mostrar Datos Ver
  • Format                      : Matroska
    Format version              : Version 4
    File size                   : 51.7 GiB
    Duration                    : 1 h 55 min
    Overall bit rate mode       : Variable
    Overall bit rate            : 63.9 Mb/s
    Movie name                  : Speed (1994) REMUX 4K HDR Latino - CMHDD
    Encoded date                : UTC 2021-05-01 04:59:50
    Writing application         : mkvmerge v56.1.0 ('My Friend') 64-bit
    Writing library             : libebml v1.4.2 + libmatroska v1.6.4
    Cover                       : Yes
    Attachments                 : cover.jpg / cover.jpg

    Video
    ID                          : 1
    ID in the original source m : 4113 (0x1011)
    Format                      : HEVC
    Format/Info                 : High Efficiency Video Coding
    Format profile              : Main 10@L5.1@High
    HDR format                  : SMPTE ST 2086, HDR10 compatible
    Codec ID                    : V_MPEGH/ISO/HEVC
    Duration                    : 1 h 55 min
    Bit rate                    : 59.6 Mb/s
    Width                       : 3 840 pixels
    Height                      : 2 160 pixels
    Display aspect ratio        : 16:9
    Frame rate mode             : Constant
    Frame rate                  : 23.976 (24000/1001) FPS
    Color space                 : YUV
    Chroma subsampling          : 4:2:0 (Type 2)
    Bit depth                   : 10 bits
    Bits/(Pixel*Frame)          : 0.300
    Stream size                 : 48.2 GiB (93%)
    Writing library             : ATEME Titan File 3.9.6 (4.9.6.2)        
    Default                     : Yes
    Forced                      : No
    Color range                 : Limited
    Color primaries             : BT.2020
    Transfer characteristics    : PQ
    Matrix coefficients         : BT.2020 non-constant
    Mastering display color pri : Display P3
    Mastering display luminance : min: 0.0050 cd/m2, max: 1000 cd/m2
    Original source medium      : Blu-ray

    Audio #1
    ID                          : 2
    ID in the original source m : 4352 (0x1100)
    Format                      : DTS XLL
    Format/Info                 : Digital Theater Systems
    Commercial name             : DTS-HD Master Audio
    Codec ID                    : A_DTS
    Duration                    : 1 h 55 min
    Bit rate mode               : Variable
    Bit rate                    : 3 830 kb/s
    Channel(s)                  : 6 channels
    Channel layout              : C L R Ls Rs LFE
    Sampling rate               : 48.0 kHz
    Frame rate                  : 93.750 FPS (512 SPF)
    Bit depth                   : 24 bits
    Compression mode            : Lossless
    Stream size                 : 3.10 GiB (6%)
    Language                    : English
    Default                     : No
    Forced                      : No
    Original source medium      : Blu-ray

    Audio #2
    ID                          : 3
    ID in the original source m : 4355 (0x1103)
    Format                      : AC-3
    Format/Info                 : Audio Coding 3
    Commercial name             : Dolby Digital
    Codec ID                    : A_AC3
    Duration                    : 1 h 55 min
    Bit rate mode               : Constant
    Bit rate                    : 448 kb/s
    Channel(s)                  : 6 channels
    Channel layout              : L R C LFE Ls Rs
    Sampling rate               : 48.0 kHz
    Frame rate                  : 31.250 FPS (1536 SPF)
    Compression mode            : Lossy
    Stream size                 : 371 MiB (1%)
    Language                    : Spanish
    Service kind                : Complete Main
    Default                     : Yes
    Forced                      : No
    Original source medium      : Blu-ray

    Text #1
    ID                          : 4
    ID in the original source m : 4770 (0x12A2)
    Format                      : PGS
    Muxing mode                 : zlib
    Codec ID                    : S_HDMV/PGS
    Codec ID/Info               : Picture based subtitle format used on BDs/HD-DVDs
    Duration                    : 1 h 49 min
    Bit rate                    : 26.8 kb/s
    Count of elements           : 2302
    Stream size                 : 21.0 MiB (0%)
    Language                    : Spanish
    Default                     : No
    Forced                      : No
    Original source medium      : Blu-ray

    Text #2
    ID                          : 5
    ID in the original source m : 4775 (0x12A7)
    Format                      : PGS
    Muxing mode                 : zlib
    Codec ID                    : S_HDMV/PGS
    Codec ID/Info               : Picture based subtitle format used on BDs/HD-DVDs
    Duration                    : 1 h 54 min
    Bit rate                    : 57.6 kb/s
    Count of elements           : 3552
    Stream size                 : 47.0 MiB (0%)
    Language                    : Spanish
    Default                     : No
    Forced                      : No
    Original source medium      : Blu-ray

    Menu
    00:00:00.000                : Chapter 01
    00:04:20.218                : Chapter 02
    00:06:04.947                : Chapter 03
    00:08:27.757                : Chapter 04
    00:11:18.552                : Chapter 05
    00:15:24.381                : Chapter 06
    00:17:38.891                : Chapter 07
    00:23:22.484                : Chapter 08
    00:26:44.436                : Chapter 09
    00:31:02.443                : Chapter 10
    00:35:06.187                : Chapter 11
    00:40:24.255                : Chapter 12
    00:44:33.420                : Chapter 13
    00:48:47.174                : Chapter 14
    00:53:09.853                : Chapter 15
    00:55:44.883                : Chapter 16
    00:58:52.487                : Chapter 17
    01:02:20.111                : Chapter 18
    01:07:39.055                : Chapter 19
    01:08:55.214                : Chapter 20
    01:11:52.182                : Chapter 21
    01:15:17.513                : Chapter 22
    01:15:41.203                : Chapter 23
    01:19:34.186                : Chapter 24
    01:23:28.253                : Chapter 25
    01:27:05.303                : Chapter 26
    01:32:57.863                : Chapter 27
    01:37:06.695                : Chapter 28
    01:40:28.897                : Chapter 29
    01:42:20.551                : Chapter 30
    01:46:06.443                : Chapter 31
    01:50:06.933                : Chapter 32

  • Peso: 51.7 GiB

Sinopsis

Jack Traven es un intrépido policía de Los Angeles. La supervivencia en esta ciudad para un agente de la ley no es tarea fácil, pero Jack, además de disfrutar de una proverbial buena suerte, conoce perfectamente los trucos para sortear el peligro. Sin embargo, tendrá que afrontar una dura prueba cuando queda atrapado en un autobús urbano que lleva instalada una bomba programada para explotar si el vehículo disminuye su velocidad a menos de 50 millas por hora. Empieza así una loca carrera por la ciudad, con Jack intentando dar confianza a la joven pasajera que ha sustituido al conductor, herido en el ‘secuestro’.

Ficha técnica

Video trailer de la película

Enlaces de descarga

Rip de Bluray

Descargar Speed (1994) REMUX 4K HDR Latino – CMHDD


Aportes de DPeliculasHDmega la pass es:dpeliculashdmega.org Aportes de CinemaniaHD la pass es:cinemaniahdd.com
Guardado en : Acción , Aventura , Crimen

Películas relacionadas

descargar Speed (1994) REMUX 4K HDR Latino – CMHDD 4K HDR 1080p gratis, Speed (1994) REMUX 4K HDR Latino – CMHDD 4K HDR mega 1 link, Speed (1994) REMUX 4K HDR Latino – CMHDD 4K HDR pelicula completa, descargar Speed (1994) REMUX 4K HDR Latino – CMHDD 4K HDR gratis en mega.

Speed (1994) REMUX 4K HDR Latino – CMHDD pelicula full hd, Speed (1994) REMUX 4K HDR Latino – CMHDD mega latino, Speed (1994) REMUX 4K HDR Latino – CMHDD 4k latino, Speed (1994) REMUX 4K HDR Latino – CMHDD pelicula completa, Speed (1994) REMUX 4K HDR Latino – CMHDD descargar gratis, descargar Speed (1994) REMUX 4K HDR Latino – CMHDD pelicula latino, Speed (1994) REMUX 4K HDR Latino – CMHDD 1 link mega, Speed (1994) REMUX 4K HDR Latino – CMHDD 1 link google drive, Speed (1994) REMUX 4K HDR Latino – CMHDD hd 1080p latino.
Comentarios 0