Speed (1994) REMUX 1080p Latino – CMHDD

33 vistas
1 estrella2 estrellas3 estrellas4 estrellas5 estrellas (Ninguna valoración todavía)
Cargando...

Información de Speed (1994) REMUX 1080p Latino – CMHDD

Datos de la película

  • Calidad: Full 1080p
  • Audio: Español Latino AC3 5.1 BLURAY - Ingles DTS 5.1 BLURAY
  • Subtitulos: Español Latino PGS
  • Resolución: 1920x1080p
  • Formato: MKV
  • Codec: H.264
  • Encoder: Dracarys
  • Mediainfo: Clic para Mostrar Datos Ver
  • Format                      : Matroska
    Format version              : Version 4
    File size                   : 18.2 GiB
    Duration                    : 1 h 55 min
    Overall bit rate mode       : Variable
    Overall bit rate            : 22.5 Mb/s
    Movie name                  : Speed (1994) REMUX 1080p Latino - CMHDD
    Encoded date                : UTC 2021-05-01 05:14:17
    Writing application         : mkvmerge v56.1.0 ('My Friend') 64-bit
    Writing library             : libebml v1.4.2 + libmatroska v1.6.4
    Cover                       : Yes
    Attachments                 : cover.jpg / cover.jpg / cover.jpg

    Video
    ID                          : 1
    ID in the original source m : 4113 (0x1011)
    Format                      : AVC
    Format/Info                 : Advanced Video Codec
    Format profile              : High@L4.1
    Format settings             : CABAC / 2 Ref Frames
    Format settings, CABAC      : Yes
    Format settings, Reference  : 2 frames
    Format settings, GOP        : M=3, N=24
    Codec ID                    : V_MPEG4/ISO/AVC
    Duration                    : 1 h 55 min
    Bit rate                    : 18.1 Mb/s
    Width                       : 1 920 pixels
    Height                      : 1 080 pixels
    Display aspect ratio        : 16:9
    Frame rate mode             : Constant
    Frame rate                  : 23.976 (24000/1001) FPS
    Color space                 : YUV
    Chroma subsampling          : 4:2:0
    Bit depth                   : 8 bits
    Scan type                   : Progressive
    Bits/(Pixel*Frame)          : 0.365
    Stream size                 : 14.7 GiB (81%)
    Default                     : Yes
    Forced                      : No
    Original source medium      : Blu-ray

    Audio #1
    ID                          : 2
    ID in the original source m : 4352 (0x1100)
    Format                      : DTS XLL
    Format/Info                 : Digital Theater Systems
    Commercial name             : DTS-HD Master Audio
    Codec ID                    : A_DTS
    Duration                    : 1 h 55 min
    Bit rate mode               : Variable
    Bit rate                    : 3 865 kb/s
    Channel(s)                  : 6 channels
    Channel layout              : C L R Ls Rs LFE
    Sampling rate               : 48.0 kHz
    Frame rate                  : 93.750 FPS (512 SPF)
    Bit depth                   : 24 bits
    Compression mode            : Lossless
    Stream size                 : 3.13 GiB (17%)
    Language                    : English
    Default                     : No
    Forced                      : No
    Original source medium      : Blu-ray

    Audio #2
    ID                          : 3
    Format                      : AC-3
    Format/Info                 : Audio Coding 3
    Commercial name             : Dolby Digital
    Codec ID                    : A_AC3
    Duration                    : 1 h 55 min
    Bit rate mode               : Constant
    Bit rate                    : 448 kb/s
    Channel(s)                  : 6 channels
    Channel layout              : L R C LFE Ls Rs
    Sampling rate               : 48.0 kHz
    Frame rate                  : 31.250 FPS (1536 SPF)
    Compression mode            : Lossy
    Delay relative to video     : 4 ms
    Stream size                 : 371 MiB (2%)
    Language                    : Spanish
    Service kind                : Complete Main
    Default                     : Yes
    Forced                      : No

    Text
    ID                          : 4
    ID in the original source m : 4609 (0x1201)
    Format                      : PGS
    Muxing mode                 : zlib
    Codec ID                    : S_HDMV/PGS
    Codec ID/Info               : Picture based subtitle format used on BDs/HD-DVDs
    Duration                    : 1 h 47 min
    Bit rate                    : 48.2 kb/s
    Count of elements           : 1624
    Stream size                 : 37.1 MiB (0%)
    Language                    : Spanish
    Default                     : No
    Forced                      : No
    Original source medium      : Blu-ray

    Menu
    00:00:00.000                : Chapter 01
    00:04:18.549                : Chapter 02
    00:06:03.321                : Chapter 03
    00:08:26.088                : Chapter 04
    00:11:16.884                : Chapter 05
    00:15:22.713                : Chapter 06
    00:17:37.222                : Chapter 07
    00:23:20.816                : Chapter 08
    00:26:42.767                : Chapter 09
    00:31:00.775                : Chapter 10
    00:35:04.519                : Chapter 11
    00:40:22.586                : Chapter 12
    00:44:31.752                : Chapter 13
    00:48:45.505                : Chapter 14
    00:53:08.184                : Chapter 15
    00:55:43.214                : Chapter 16
    00:58:50.818                : Chapter 17
    01:02:18.442                : Chapter 18
    01:07:37.386                : Chapter 19
    01:08:53.546                : Chapter 20
    01:11:50.514                : Chapter 21
    01:15:15.844                : Chapter 22
    01:15:39.534                : Chapter 23
    01:19:32.517                : Chapter 24
    01:23:26.584                : Chapter 25
    01:27:03.634                : Chapter 26
    01:32:56.195                : Chapter 27
    01:37:05.027                : Chapter 28
    01:40:27.229                : Chapter 29
    01:42:18.882                : Chapter 30
    01:46:04.774                : Chapter 31
    01:50:05.265                : Chapter 32

  • Peso: 18.2 GiB

Sinopsis

Jack Traven es un intrépido policía de Los Angeles. La supervivencia en esta ciudad para un agente de la ley no es tarea fácil, pero Jack, además de disfrutar de una proverbial buena suerte, conoce perfectamente los trucos para sortear el peligro. Sin embargo, tendrá que afrontar una dura prueba cuando queda atrapado en un autobús urbano que lleva instalada una bomba programada para explotar si el vehículo disminuye su velocidad a menos de 50 millas por hora. Empieza así una loca carrera por la ciudad, con Jack intentando dar confianza a la joven pasajera que ha sustituido al conductor, herido en el ‘secuestro’.

Ficha técnica

  • Titulo original: Speed
  • Fecha de lanzamiento: 09-06-1994 (United States of America)
  • Director: Jan de Bont
  • Género: Acción, Aventura, Crimen
  • Puntuación: 0.0 0 votos
  • Duración:
    1h 55m

Video trailer de la película

Enlaces de descarga

Rip de Bluray

Descargar Speed (1994) REMUX 1080p Latino – CMHDD


Aportes de DPeliculasHDmega la pass es:dpeliculashdmega.org Aportes de CinemaniaHD la pass es:cinemaniahdd.com
Guardado en : Acción , Aventura , Crimen

Películas relacionadas

  • Nadie (2021) REMUX 1080p Latino

    Nadie (2021) REMUX 1080p Latino

    2021
    Nadie (2021) REMUX 1080p Latino

    5.0 1h 32m 2021

    Descargar Nadie (2021) REMUX 1080p Latino. Hutch Mansell, un padre de familia que aguanta con resignación...

    Director: Ilya Naishuller

    Género: Acción

    Actores: Yulia Guzhva

  • Locked Down (2021) HMAX WEB-DL 1080p Latino

    Locked Down (2021) HMAX WEB-DL 1080p Latino

    2021
    Locked Down (2021) HMAX WEB-DL 1080p Latino

    5.0 1h 58m 2021

    Linda y Paxton son una pareja con problemas pero que deciden pausar su separación con un objetivo: aprovecharse...

    Director: Sam Barry-Parker

    Género: Comedia

    Actores: Tallulah Greive

  • Godzilla vs Kong (2021) REMUX 4K HDR Latino – CMHDD

    Godzilla vs Kong (2021) REMUX 4K HDR Latino – CMHDD

    2021
    Godzilla vs Kong (2021) REMUX 4K HDR Latino – CMHDD

    5.0 1h 53m 2021

    Godzilla y Kong, dos de las fuerzas más poderosas de un planeta habitado por todo tipo de aterradoras...

    Director: Thomas Robinson Harper

    Género: Acción

    Actores: Victoria Liu

Speed (1994) REMUX 1080p Latino – CMHDD pelicula full hd, Speed (1994) REMUX 1080p Latino – CMHDD mega latino, Speed (1994) REMUX 1080p Latino – CMHDD 4k latino, Speed (1994) REMUX 1080p Latino – CMHDD pelicula completa, Speed (1994) REMUX 1080p Latino – CMHDD descargar gratis, descargar Speed (1994) REMUX 1080p Latino – CMHDD pelicula latino, Speed (1994) REMUX 1080p Latino – CMHDD 1 link mega, Speed (1994) REMUX 1080p Latino – CMHDD 1 link google drive, Speed (1994) REMUX 1080p Latino – CMHDD hd 1080p latino.
Comentarios 0