×

¿Problemas para descargar con Mozilla, EDGE? Deshabilita la opción "Abrir vinculos en una pestaña nueva" tal como lo muestra ésta imagen.

Speed (1994) Full HD 1080p Latino – CMHDD

228 vistas

Información de Speed (1994) Full HD 1080p Latino – CMHDD

Datos de la película

  • Calidad: Full 1080p
  • Audio: Español Latino AC3 5.1 BLURAY - Ingles DTS 5.1 BLURAY
  • Subtitulos: Español Latino PGS
  • Resolución: 1920x1080p
  • Formato: MKV
  • Codec: H.264
  • Encoder: Dracarys
  • Mediainfo: Clic para Mostrar Datos Ver
  • Format                      : Matroska
    Format version              : Version 4
    File size                   : 8.85 GiB
    Duration                    : 1 h 55 min
    Overall bit rate            : 10.9 Mb/s
    Movie name                  : Speed (1994) Full HD 1080p Latino - CMHDD
    Encoded date                : UTC 2021-05-01 19:46:37 / UTC 2017-11-06T21:36:28Z
    Writing application         : mkvmerge v56.1.0 ('My Friend') 64-bit
    Writing library             : libebml v1.4.2 + libmatroska v1.6.4 / Lavf57.7.2

    Video
    ID                          : 1
    Format                      : AVC
    Format/Info                 : Advanced Video Codec
    Format profile              : High@L4.1
    Format settings             : CABAC / 4 Ref Frames
    Format settings, CABAC      : Yes
    Format settings, Reference  : 4 frames
    Codec ID                    : V_MPEG4/ISO/AVC
    Duration                    : 1 h 55 min
    Bit rate                    : 8 756 kb/s
    Width                       : 1 920 pixels
    Height                      : 1 080 pixels
    Display aspect ratio        : 16:9
    Frame rate mode             : Constant
    Frame rate                  : 23.976 (24000/1001) FPS
    Color space                 : YUV
    Chroma subsampling          : 4:2:0
    Bit depth                   : 8 bits
    Scan type                   : Progressive
    Bits/(Pixel*Frame)          : 0.176
    Stream size                 : 7.09 GiB (80%)
    Title                       : Speed Máxima potencia (1994) Full 1080p Latino
    Writing library             : x264 core 148 r2708 86b7198
    Encoding settings           : cabac=1 / ref=4 / deblock=1:0:0 / analyse=0x3:0x133 / me=esa / subme=10 / psy=1 / psy_rd=1.00:0.00 / mixed_ref=1 / me_range=24 / chroma_me=1 / trellis=2 / 8x8dct=1 / cqm=0 / deadzone=21,11 / fast_pskip=1 / chroma_qp_offset=-2 / threads=34 / lookahead_threads=5 / sliced_threads=0 / nr=0 / decimate=1 / interlaced=0 / bluray_compat=0 / constrained_intra=0 / bframes=8 / b_pyramid=2 / b_adapt=2 / b_bias=0 / direct=3 / weightb=1 / open_gop=0 / weightp=2 / keyint=240 / keyint_min=24 / scenecut=40 / intra_refresh=0 / rc_lookahead=60 / rc=crf / mbtree=1 / crf=20.0 / qcomp=0.60 / qpmin=0 / qpmax=69 / qpstep=4 / vbv_maxrate=62500 / vbv_bufsize=78125 / crf_max=0.0 / nal_hrd=none / filler=0 / ip_ratio=1.40 / aq=1:1.00
    Language                    : English
    Default                     : Yes
    Forced                      : No
    Color range                 : Limited
    Color primaries             : BT.709
    Transfer characteristics    : BT.709
    Matrix coefficients         : BT.709
    Statistics Tags Issue       : mkvmerge v56.1.0 ('My Friend') 64-bit 2021-05-01 19:46:37 / mkvmerge v56.1.0 ('My Friend') 64-bit 2021-05-01 19:46:37 / UTC 2017-11-06T21:36:28Z
    FromStats_BitRate           : 8963487
    FromStats_Duration          : 01:55:53.780000000
    FromStats_FrameCount        : 166724
    FromStats_StreamSize        : 7791265008
    Duration_Source             : General_Duration

    Audio #1
    ID                          : 2
    Format                      : AC-3
    Format/Info                 : Audio Coding 3
    Commercial name             : Dolby Digital
    Codec ID                    : A_AC3
    Duration                    : 1 h 55 min
    Bit rate mode               : Constant
    Bit rate                    : 448 kb/s
    Channel(s)                  : 6 channels
    Channel layout              : L R C LFE Ls Rs
    Sampling rate               : 48.0 kHz
    Frame rate                  : 31.250 FPS (1536 SPF)
    Compression mode            : Lossy
    Delay relative to video     : 1 s 0 ms
    Stream size                 : 371 MiB (4%)
    Title                       : Latino-AC3
    Language                    : Spanish
    Service kind                : Complete Main
    Default                     : Yes
    Forced                      : No
    Statistics Tags Issue       : mkvmerge v56.1.0 ('My Friend') 64-bit 2021-05-01 19:46:37 / mkvmerge v56.1.0 ('My Friend') 64-bit 2021-05-01 19:46:37 / UTC 2017-11-06T21:36:28Z
    FromStats_BitRate           : 448000
    FromStats_Duration          : 01:55:52.832000000
    FromStats_FrameCount        : 217276
    FromStats_StreamSize        : 389358592
    Duration_Source             : General_Duration

    Audio #2
    ID                          : 3
    Format                      : DTS
    Format/Info                 : Digital Theater Systems
    Codec ID                    : A_DTS
    Duration                    : 1 h 55 min
    Bit rate mode               : Constant
    Bit rate                    : 1 509 kb/s
    Channel(s)                  : 6 channels
    Channel layout              : C L R Ls Rs LFE
    Sampling rate               : 48.0 kHz
    Frame rate                  : 93.750 FPS (512 SPF)
    Bit depth                   : 24 bits
    Compression mode            : Lossy
    Stream size                 : 1.22 GiB (14%)
    Title                       : Ingles-DTS
    Language                    : English
    Default                     : No
    Forced                      : No
    Statistics Tags Issue       : mkvmerge v56.1.0 ('My Friend') 64-bit 2021-05-01 19:46:37 / mkvmerge v56.1.0 ('My Friend') 64-bit 2021-05-01 19:46:37 / UTC 2017-11-06T21:36:28Z
    FromStats_BitRate           : 1508999
    FromStats_Duration          : 01:55:53.782000000
    FromStats_FrameCount        : 651917
    FromStats_StreamSize        : 1311657004
    Duration_Source             : General_Duration

    Text
    ID                          : 4
    Format                      : PGS
    Muxing mode                 : zlib
    Codec ID                    : S_HDMV/PGS
    Codec ID/Info               : Picture based subtitle format used on BDs/HD-DVDs
    Language                    : Spanish
    Default                     : No
    Forced                      : No
    Statistics Tags Issue       : mkvmerge v56.1.0 ('My Friend') 64-bit 2021-05-01 19:46:37 / mkvmerge v56.1.0 ('My Friend') 64-bit 2021-05-01 19:46:37 / UTC 2017-11-06T21:36:28Z
    FromStats_BitRate           : 25727
    FromStats_Duration          : 01:54:47.881000000
    FromStats_FrameCount        : 2304
    FromStats_StreamSize        : 22150919

    Menu
    00:00:00.000                : :Main Titles
    00:04:19.551                : :Hole the Elevator
    00:06:04.281                : :L.a.P.D. Bomb Squad
    00:08:27.090                : :Down the Shaft
    00:11:17.886                : :A Gut Feeling
    00:15:23.714                : :Perilous Rescue
    00:17:38.224                : :He's Here!
    00:23:21.817                : :Heroes
    00:26:43.769                : :The Game Begins
    00:31:01.777                : :The Bus
    00:35:05.520                : :High Speed Pursuit with "Tune Man"
    00:40:23.588                : :Jack on Board
    00:44:32.753                : :Under the Bus
    00:48:46.507                : :Through the Streets; a Hard Right
    00:53:09.186                : :An Empty Freeway
    00:55:44.216                : :Passenger Transfer
    00:58:51.820                : :Watch Your Step
    01:02:19.444                : :Leap of Faith
    01:07:38.388                : :Circling the Runway
    01:08:54.547                : :Jack Gets Off
    01:11:51.516                : :The Plan
    01:15:16.846                : :Howard Payne
    01:15:40.536                : :Belly of the Beast
    01:19:33.519                : :A Costly Mistake
    01:23:27.586                : :Video Games
    01:27:04.636                : :Evacuation
    01:32:57.197                : :The Trap
    01:37:06.029                : :Going Underground
    01:40:28.231                : :On the Train
    01:42:19.884                : :Howard's Headache
    01:46:05.776                : :Full Speed Ahead
    01:50:06.266                : :End Credits

  • Peso: 8.85 GiB

Sinopsis

Jack Traven es un intrépido policía de Los Angeles. La supervivencia en esta ciudad para un agente de la ley no es tarea fácil, pero Jack, además de disfrutar de una proverbial buena suerte, conoce perfectamente los trucos para sortear el peligro. Sin embargo, tendrá que afrontar una dura prueba cuando queda atrapado en un autobús urbano que lleva instalada una bomba programada para explotar si el vehículo disminuye su velocidad a menos de 50 millas por hora. Empieza así una loca carrera por la ciudad, con Jack intentando dar confianza a la joven pasajera que ha sustituido al conductor, herido en el ‘secuestro’.

Ficha técnica

Video trailer de la película

Enlaces de descarga

Rip de Bluray

Descargar Speed (1994) Full HD 1080p Latino – CMHDD




Aportes de DPeliculasHDmega la pass es:dpeliculashdmega.org Aportes de CinemaniaHD la pass es:cinemaniahdd.com
Guardado en : Acción , Aventura , Crimen

Películas relacionadas

  • Tren Bala (2022) WEB-DL 4K UHD HDR Latino

    Tren Bala (2022) WEB-DL 4K UHD HDR Latino

    2022
    Tren Bala (2022) WEB-DL 4K UHD HDR Latino

    2h 7m 2022

    Descargar Tren Bala (2022) WEB-DL 4K UHD HDR Latino. El desafortunado asesino "Catarina" está decidido...

    Director: Paul Barry

    Género: 4K HDR

    Actores: Zooey Miyoshi

  • Tren Bala (2022) AMZN WEB-DL 1080p Latino

    Tren Bala (2022) AMZN WEB-DL 1080p Latino

    2022
    Tren Bala (2022) AMZN WEB-DL 1080p Latino

    2h 7m 2022

    Descargar Tren Bala (2022) AMZN WEB-DL 1080p Latino. Cinco asesinos a sueldo se encuentran a bordo de...

    Director: Paul Barry

    Género: Acción

    Actores: Zooey Miyoshi

  • Athena (2022) NF WEB-DL 1080p Latino

    Athena (2022) NF WEB-DL 1080p Latino

    2022
    Athena (2022) NF WEB-DL 1080p Latino

    1h 37m 2022

    Descargar Athena (2022) NF WEB-DL 1080p Latino. Horas después de la trágica muerte de su hermano menor...

    Director: Romain Gavras

    Género: Acción

    Actores: Tarek Haddaji

  • Lou (2022) NF WEB-DL 1080p Latino

    Lou (2022) NF WEB-DL 1080p Latino

    2022
    Lou (2022) NF WEB-DL 1080p Latino

    1h 47m 2022

    Descargar Lou (2022) NF WEB-DL 1080p Latino. Una mujer misteriosa y solitaria lucha contra las inclemencias...

    Director: Anna Foerster

    Género: Acción

    Actores: Toby Levins

descargar Speed (1994) Full HD 1080p Latino – CMHDD Full 1080p 1080p gratis, Speed (1994) Full HD 1080p Latino – CMHDD Full 1080p mega 1 link, Speed (1994) Full HD 1080p Latino – CMHDD Full 1080p pelicula completa, descargar Speed (1994) Full HD 1080p Latino – CMHDD Full 1080p gratis en mega.

Speed (1994) Full HD 1080p Latino – CMHDD pelicula full hd, Speed (1994) Full HD 1080p Latino – CMHDD mega latino, Speed (1994) Full HD 1080p Latino – CMHDD 4k latino, Speed (1994) Full HD 1080p Latino – CMHDD pelicula completa, Speed (1994) Full HD 1080p Latino – CMHDD descargar gratis, descargar Speed (1994) Full HD 1080p Latino – CMHDD pelicula latino, Speed (1994) Full HD 1080p Latino – CMHDD 1 link mega, Speed (1994) Full HD 1080p Latino – CMHDD 1 link google drive, Speed (1994) Full HD 1080p Latino – CMHDD hd 1080p latino.