James Bond: Spectre (2015) 1080p Latino

21 vistas
1 estrella2 estrellas3 estrellas4 estrellas5 estrellas (Ninguna valoración todavía)
Cargando…

Información de James Bond: Spectre (2015) 1080p Latino

Datos de la película

  • Calidad: 1080p
  • Audio: Español Latino AC3 5.1 BLURAY - Ingles AC3 5.1 BLURAY
  • Subtitulos: Español Latino SRT - Ingles SRT
  • Resolución: 1920x806p
  • Formato: MKV
  • Codec: H.264
  • Encoder: CinefiloCool
  • Mediainfo: Clic para Mostrar Datos Ver
  • Spectre (2015) 1080p Latino-CMHDD.mkv
    Format                      : Matroska
    Format version              : Version 4
    File size                   : 5.58 GiB
    Duration                    : 2 h 28 min
    Overall bit rate            : 5 398 kb/s
    Movie name                  : Spectre (2015) CinemaniaHDD.Net
    Encoded date                : UTC 2020-05-21 04:32:15
    Writing application         : mkvmerge v46.0.0 ('No Deeper Escape') 64-bit
    Writing library             : libebml v1.3.10 + libmatroska v1.5.2
    Attachments                 : CINEMANIAHD.png

    Video
    ID                          : 1
    Format                      : AVC
    Format/Info                 : Advanced Video Codec
    Format profile              : High@L4.1
    Format settings             : CABAC / 4 Ref Frames
    Format settings, CABAC      : Yes
    Format settings, Reference  : 4 frames
    Codec ID                    : V_MPEG4/ISO/AVC
    Duration                    : 2 h 28 min
    Bit rate                    : 4 500 kb/s
    Width                       : 1 920 pixels
    Height                      : 806 pixels
    Display aspect ratio        : 2.40:1
    Frame rate mode             : Constant
    Frame rate                  : 23.976 (24000/1001) FPS
    Color space                 : YUV
    Chroma subsampling          : 4:2:0
    Bit depth                   : 8 bits
    Scan type                   : Progressive
    Bits/(Pixel*Frame)          : 0.121
    Stream size                 : 4.66 GiB (83%)
    Title                       : HD1080p [CinemaniaHDD]
    Writing library             : x264 core 142 r2479 dd79a61
    Encoding settings           : cabac=1 / ref=3 / deblock=1:-1:-1 / analyse=0x3:0x113 / me=hex / subme=7 / psy=1 / psy_rd=1.00:0.15 / mixed_ref=1 / me_range=16 / chroma_me=1 / trellis=1 / 8x8dct=1 / cqm=0 / deadzone=21,11 / fast_pskip=1 / chroma_qp_offset=-3 / threads=12 / lookahead_threads=2 / sliced_threads=0 / nr=0 / decimate=1 / interlaced=0 / bluray_compat=0 / constrained_intra=0 / bframes=3 / b_pyramid=2 / b_adapt=1 / b_bias=0 / direct=1 / weightb=1 / open_gop=0 / weightp=2 / keyint=240 / keyint_min=24 / scenecut=40 / intra_refresh=0 / rc_lookahead=40 / rc=2pass / mbtree=1 / bitrate=4500 / ratetol=1.0 / qcomp=0.60 / qpmin=0 / qpmax=69 / qpstep=4 / cplxblur=20.0 / qblur=0.5 / vbv_maxrate=62500 / vbv_bufsize=78125 / nal_hrd=none / filler=0 / ip_ratio=1.40 / aq=1:1.00
    Default                     : Yes
    Forced                      : No
    Color range                 : Limited
    Color primaries             : BT.709
    Transfer characteristics    : BT.709
    Matrix coefficients         : BT.709

    Audio #1
    ID                          : 2
    Format                      : AC-3
    Format/Info                 : Audio Coding 3
    Commercial name             : Dolby Digital
    Codec ID                    : A_AC3
    Duration                    : 2 h 28 min
    Bit rate mode               : Constant
    Bit rate                    : 448 kb/s
    Channel(s)                  : 6 channels
    Channel layout              : L R C LFE Ls Rs
    Sampling rate               : 48.0 kHz
    Frame rate                  : 31.250 FPS (1536 SPF)
    Compression mode            : Lossy
    Delay relative to video     : -83 ms
    Stream size                 : 475 MiB (8%)
    Title                       : Español Latino [CinemaniaHDD]
    Language                    : Spanish
    Service kind                : Complete Main
    Default                     : Yes
    Forced                      : No

    Audio #2
    ID                          : 3
    Format                      : AC-3
    Format/Info                 : Audio Coding 3
    Commercial name             : Dolby Digital
    Codec ID                    : A_AC3
    Duration                    : 2 h 28 min
    Bit rate mode               : Constant
    Bit rate                    : 448 kb/s
    Channel(s)                  : 6 channels
    Channel layout              : L R C LFE Ls Rs
    Sampling rate               : 48.0 kHz
    Frame rate                  : 31.250 FPS (1536 SPF)
    Compression mode            : Lossy
    Delay relative to video     : -83 ms
    Stream size                 : 475 MiB (8%)
    Title                       : Ingles [CinemaniaHDD]
    Language                    : English
    Service kind                : Complete Main
    Default                     : No
    Forced                      : No

    Text #1
    ID                          : 4
    Format                      : UTF-8
    Codec ID                    : S_TEXT/UTF8
    Codec ID/Info               : UTF-8 Plain Text
    Duration                    : 2 h 26 min
    Bit rate                    : 1 b/s
    Count of elements           : 76
    Stream size                 : 1.75 KiB (0%)
    Title                       : Forzados-SRT [CinemaniaHDD]
    Language                    : Spanish
    Default                     : Yes
    Forced                      : No

    Text #2
    ID                          : 5
    Format                      : UTF-8
    Codec ID                    : S_TEXT/UTF8
    Codec ID/Info               : UTF-8 Plain Text
    Duration                    : 2 h 26 min
    Bit rate                    : 32 b/s
    Count of elements           : 1128
    Stream size                 : 34.7 KiB (0%)
    Title                       : Español-SRT [CinemaniaHDD]
    Language                    : Spanish
    Default                     : No
    Forced                      : No

    Text #3
    ID                          : 6
    Format                      : UTF-8
    Codec ID                    : S_TEXT/UTF8
    Codec ID/Info               : UTF-8 Plain Text
    Duration                    : 2 h 16 min
    Bit rate                    : 34 b/s
    Count of elements           : 980
    Stream size                 : 34.4 KiB (0%)
    Title                       : Ingles-SRT [CinemaniaHDD]
    Language                    : English
    Default                     : No
    Forced                      : No

    Menu
    00:00:00.000                : :Chapter 1
    00:06:09.119                : :Chapter 2
    00:13:04.784                : :Chapter 3
    00:18:58.471                : :Chapter 4
    00:24:46.777                : :Chapter 5
    00:28:04.057                : :Chapter 6
    00:32:15.559                : :Chapter 7
    00:36:58.591                : :Chapter 8
    00:41:56.639                : :Chapter 9
    00:46:13.145                : :Chapter 10
    00:50:51.924                : :Chapter 11
    00:53:43.220                : :Chapter 12
    01:00:21.368                : :Chapter 13
    01:06:48.213                : :Chapter 14
    01:10:58.963                : :Chapter 15
    01:15:14.093                : :Chapter 16
    01:18:55.648                : :Chapter 17
    01:26:11.041                : :Chapter 18
    01:29:40.000                : :Chapter 19
    01:36:43.548                : :Chapter 20
    01:41:44.390                : :Chapter 21
    01:49:06.415                : :Chapter 22
    01:55:52.821                : :Chapter 23
    01:59:39.214                : :Chapter 24
    02:04:19.744                : :Chapter 25
    02:09:28.511                : :Chapter 26
    02:14:05.663                : :Chapter 27
    02:19:42.374                : :Chapter 28

  • Peso: 5.58 GiB

Sinopsis

Descargar James Bond: Spectre (2015) 1080p Latino. Un críptico mensaje del pasado envía a James Bond a una misión secreta a México D.F. y luego a Roma, donde conoce a Lucía Sciarra, la hermosa viuda de un infame criminal. Bond se infiltra en una reunión secreta y descubre la existencia de una siniestra organización conocida como SPECTRE. Mientras tanto, en Londres, el nuevo director del Centro para la Seguridad Nacional cuestiona las acciones de Bond y pone en duda la importancia del MI6, encabezado por M. De modo encubierto Bond recluta a Moneypenny y Q para que le ayuden a buscar a Madeleine Swann, la hija de su antiguo archienemigo, el Sr. White, que quizá tenga la clave para desentrañar el misterio de SPECTRE. A medida que Bond avanza en su misión, descubre una estremecedora conexión entre él mismo y el enemigo que busca.

Ficha técnica

Video trailer de la película

Enlaces de descarga

Rip de Bluray

Descargar James Bond: Spectre (2015) 1080p Latino




Aportes de DPeliculasHDmega la pass es:dpeliculashdmega.org Aportes de CinemaniaHD la pass es:cinemaniahdd.com
Guardado en : Acción , Aventura , HD 1080p , Suspenso

Películas relacionadas

  • Rápido y Furioso 2 (2003) HD 1080p Latino – CMHDD

    Rápido y Furioso 2 (2003) HD 1080p Latino – CMHDD

    2003
    Rápido y Furioso 2 (2003) HD 1080p Latino – CMHDD

    0.0 1h 45m 2003

    Secuela de "A todo gas" (The Fast and the Furious). Brian O'Connor, un policía caído en desgracia,...

    Director: Terry Leonard

    Género: Acción

    Actores: Zachary L. Mann

  • Rápido y Furioso 3 (2006) Full HD 1080p Latino – CMHDD

    Rápido y Furioso 3 (2006) Full HD 1080p Latino – CMHDD

    2006
    Rápido y Furioso 3 (2006) Full HD 1080p Latino – CMHDD

    0.0 1h 44m 2006

    Shaun Boswell es un chico que no acaba de encajar en ningún grupo. Su única conexión con el mundo...

    Director: Valeria Migliassi Collins

    Género: Acción

    Actores: Zachery Ty Bryan

  • Rápido y Furioso 3 (2006) REMUX 1080p Latino – CMHDD

    Rápido y Furioso 3 (2006) REMUX 1080p Latino – CMHDD

    2006
    Rápido y Furioso 3 (2006) REMUX 1080p Latino – CMHDD

    0.0 1h 44m 2006

    Shaun Boswell es un chico que no acaba de encajar en ningún grupo. Su única conexión con el mundo...

    Director: Valeria Migliassi Collins

    Género: Acción

    Actores: Zachery Ty Bryan

  • Rápido y Furioso 8 (2017) HD 1080p Latino – CMHDD

    Rápido y Furioso 8 (2017) HD 1080p Latino – CMHDD

    2017
    Rápido y Furioso 8 (2017) HD 1080p Latino – CMHDD

    0.0 2h 16m 2017

    La carrera ha comenzado. Dom Toretto y su equipo volverán en esta ocasión con más ganas de guerra...

    Director: Spiro Razatos

    Género: Acción

    Actores: Zachary Vazquez

Comentarios 0