James Bond: Spectre (2015) Full HD 1080p Latino

2.278 vistas
1 estrella2 estrellas3 estrellas4 estrellas5 estrellas (10 votos, promedio: 2,50 de 5)
Cargando...

Información de James Bond: Spectre (2015) Full HD 1080p Latino

Datos de la película

  • Calidad: Full 1080p
  • Audio: Español Latino AC3 5.1 BLURAY - Ingles DTS-HD Master 7.1 BLURAY
  • Subtitulos: Español Latino PGS - Ingles PGS
  • Resolución: 1920x1080p
  • Formato: MKV
  • Codec: H.264
  • Encoder: Dracarys
  • Mediainfo: Clic para Mostrar Datos Ver
  • Spectre (2015) Full HD 1080p Latino-CMHDD.mkv
    Format                      : Matroska
    Format version              : Version 4
    File size                   : 10.5 GiB
    Duration                    : 2 h 28 min
    Overall bit rate mode       : Variable
    Overall bit rate            : 10.1 Mb/s
    Movie name                  : Spectre (2015) CinemaniaHDD.Net
    Encoded date                : UTC 2020-05-21 03:53:39
    Writing application         : mkvmerge v46.0.0 ('No Deeper Escape') 64-bit
    Writing library             : libebml v1.3.10 + libmatroska v1.5.2
    Attachments                 : CINEMANIAHD.png

    Video
    ID                          : 1
    Format                      : AVC
    Format/Info                 : Advanced Video Codec
    Format profile              : High@L4.1
    Format settings             : CABAC / 4 Ref Frames
    Format settings, CABAC      : Yes
    Format settings, Reference  : 4 frames
    Codec ID                    : V_MPEG4/ISO/AVC
    Duration                    : 2 h 28 min
    Bit rate                    : 4 916 kb/s
    Width                       : 1 920 pixels
    Height                      : 1 080 pixels
    Display aspect ratio        : 16:9
    Frame rate mode             : Constant
    Frame rate                  : 23.976 (24000/1001) FPS
    Color space                 : YUV
    Chroma subsampling          : 4:2:0
    Bit depth                   : 8 bits
    Scan type                   : Progressive
    Bits/(Pixel*Frame)          : 0.099
    Stream size                 : 5.09 GiB (49%)
    Title                       : Full HD1080p [CinemaniaHDD]
    Writing library             : x264 core 148 r2708 86b7198
    Encoding settings           : cabac=1 / ref=4 / deblock=1:0:0 / analyse=0x3:0x133 / me=esa / subme=10 / psy=1 / psy_rd=1.00:0.00 / mixed_ref=1 / me_range=24 / chroma_me=1 / trellis=2 / 8x8dct=1 / cqm=0 / deadzone=21,11 / fast_pskip=1 / chroma_qp_offset=-2 / threads=34 / lookahead_threads=5 / sliced_threads=0 / nr=0 / decimate=1 / interlaced=0 / bluray_compat=0 / constrained_intra=0 / bframes=8 / b_pyramid=2 / b_adapt=2 / b_bias=0 / direct=3 / weightb=1 / open_gop=0 / weightp=2 / keyint=240 / keyint_min=24 / scenecut=40 / intra_refresh=0 / rc_lookahead=60 / rc=crf / mbtree=1 / crf=20.0 / qcomp=0.60 / qpmin=0 / qpmax=69 / qpstep=4 / vbv_maxrate=62500 / vbv_bufsize=78125 / crf_max=0.0 / nal_hrd=none / filler=0 / ip_ratio=1.40 / aq=1:1.00
    Language                    : English
    Default                     : Yes
    Forced                      : No
    Color range                 : Limited
    Color primaries             : BT.709
    Transfer characteristics    : BT.709
    Matrix coefficients         : BT.709

    Audio #1
    ID                          : 2
    Format                      : AC-3
    Format/Info                 : Audio Coding 3
    Commercial name             : Dolby Digital
    Codec ID                    : A_AC3
    Duration                    : 2 h 28 min
    Bit rate mode               : Constant
    Bit rate                    : 448 kb/s
    Channel(s)                  : 6 channels
    Channel layout              : L R C LFE Ls Rs
    Sampling rate               : 48.0 kHz
    Frame rate                  : 31.250 FPS (1536 SPF)
    Compression mode            : Lossy
    Stream size                 : 475 MiB (4%)
    Title                       : Español Latino [CinemaniaHDD]
    Language                    : Spanish
    Service kind                : Complete Main
    Default                     : Yes
    Forced                      : No

    Audio #2
    ID                          : 3
    Format                      : DTS XLL
    Format/Info                 : Digital Theater Systems
    Commercial name             : DTS-HD Master Audio
    Codec ID                    : A_DTS
    Duration                    : 2 h 28 min
    Bit rate mode               : Variable
    Bit rate                    : 4 742 kb/s
    Channel(s)                  : 8 channels
    Channel layout              : C L R LFE Lb Rb Lss Rss
    Sampling rate               : 48.0 kHz
    Frame rate                  : 93.750 FPS (512 SPF)
    Bit depth                   : 24 bits
    Compression mode            : Lossless
    Stream size                 : 4.91 GiB (47%)
    Title                       : Ingles [CinemaniaHDD]
    Language                    : English
    Default                     : No
    Forced                      : No

    Text #1
    ID                          : 4
    Format                      : PGS
    Muxing mode                 : zlib
    Codec ID                    : S_HDMV/PGS
    Codec ID/Info               : Picture based subtitle format used on BDs/HD-DVDs
    Duration                    : 2 h 27 min
    Bit rate                    : 1 164 b/s
    Count of elements           : 154
    Stream size                 : 1.22 MiB (0%)
    Title                       : Forzados-PGS [CinemaniaHDD]
    Language                    : Spanish
    Default                     : Yes
    Forced                      : No

    Text #2
    ID                          : 5
    Format                      : PGS
    Muxing mode                 : zlib
    Codec ID                    : S_HDMV/PGS
    Codec ID/Info               : Picture based subtitle format used on BDs/HD-DVDs
    Duration                    : 2 h 27 min
    Bit rate                    : 20.3 kb/s
    Count of elements           : 2259
    Stream size                 : 21.3 MiB (0%)
    Title                       : Español-PGS [CinemaniaHDD]
    Language                    : Spanish
    Default                     : No
    Forced                      : No

    Text #3
    ID                          : 6
    Format                      : PGS
    Muxing mode                 : zlib
    Codec ID                    : S_HDMV/PGS
    Codec ID/Info               : Picture based subtitle format used on BDs/HD-DVDs
    Duration                    : 2 h 19 min
    Bit rate                    : 25.5 kb/s
    Count of elements           : 2723
    Stream size                 : 25.5 MiB (0%)
    Title                       : Ingles-PGS [CinemaniaHDD]
    Language                    : English
    Default                     : No
    Forced                      : No

    Text #4
    ID                          : 7
    Format                      : UTF-8
    Codec ID                    : S_TEXT/UTF8
    Codec ID/Info               : UTF-8 Plain Text
    Duration                    : 2 h 26 min
    Bit rate                    : 1 b/s
    Count of elements           : 76
    Stream size                 : 1.75 KiB (0%)
    Title                       : Forzados-SRT [CinemaniaHDD]
    Language                    : Spanish
    Default                     : No
    Forced                      : No

    Text #5
    ID                          : 8
    Format                      : UTF-8
    Codec ID                    : S_TEXT/UTF8
    Codec ID/Info               : UTF-8 Plain Text
    Duration                    : 2 h 26 min
    Bit rate                    : 32 b/s
    Count of elements           : 1128
    Stream size                 : 34.7 KiB (0%)
    Title                       : Español-SRT [CinemaniaHDD]
    Language                    : Spanish
    Default                     : No
    Forced                      : No

    Menu
    00:00:00.000                : :Chapter 1
    00:06:09.119                : :Chapter 2
    00:13:04.784                : :Chapter 3
    00:18:58.471                : :Chapter 4
    00:24:46.777                : :Chapter 5
    00:28:04.057                : :Chapter 6
    00:32:15.559                : :Chapter 7
    00:36:58.591                : :Chapter 8
    00:41:56.639                : :Chapter 9
    00:46:13.145                : :Chapter 10
    00:50:51.924                : :Chapter 11
    00:53:43.220                : :Chapter 12
    01:00:21.368                : :Chapter 13
    01:06:48.213                : :Chapter 14
    01:10:58.963                : :Chapter 15
    01:15:14.093                : :Chapter 16
    01:18:55.648                : :Chapter 17
    01:26:11.041                : :Chapter 18
    01:29:40.000                : :Chapter 19
    01:36:43.548                : :Chapter 20
    01:41:44.390                : :Chapter 21
    01:49:06.415                : :Chapter 22
    01:55:52.821                : :Chapter 23
    01:59:39.214                : :Chapter 24
    02:04:19.744                : :Chapter 25
    02:09:28.511                : :Chapter 26
    02:14:05.663                : :Chapter 27
    02:19:42.374                : :Chapter 28

  • Peso: 10.5 GiB

Sinopsis

Descargar James Bond: Spectre (2015) Full HD 1080p Latino. Un críptico mensaje del pasado envía a James Bond a una misión secreta a México D.F. y luego a Roma, donde conoce a Lucía Sciarra, la hermosa viuda de un infame criminal. Bond se infiltra en una reunión secreta y descubre la existencia de una siniestra organización conocida como SPECTRE. Mientras tanto, en Londres, el nuevo director del Centro para la Seguridad Nacional cuestiona las acciones de Bond y pone en duda la importancia del MI6, encabezado por M. De modo encubierto Bond recluta a Moneypenny y Q para que le ayuden a buscar a Madeleine Swann, la hija de su antiguo archienemigo, el Sr. White, que quizá tenga la clave para desentrañar el misterio de SPECTRE. A medida que Bond avanza en su misión, descubre una estremecedora conexión entre él mismo y el enemigo que busca.

RESUBIDO!

Ficha técnica

Video trailer de la película

Enlaces de descarga

Rip de Bluray

Descargar James Bond: Spectre (2015) Full HD 1080p Latino




Aportes de DPeliculasHDmega la pass es:dpeliculashdmega.org Aportes de CinemaniaHD la pass es:cinemaniahdd.com

Películas relacionadas

  • Van Helsing (2004) 1080p Latino

    Van Helsing (2004) 1080p Latino

    2004
    Van Helsing (2004) 1080p Latino

    0.0 2h 11m 2004

    Descargar Van Helsing (2004) 1080p Latino. Siglo XIX. En medio de los montes de los Cárpatos está la...

    Director: Sylvie Chesneau

    Género: Acción

    Actores: Zuzana Durdinová

  • Van Helsing (2004) Full HD 1080p Latino

    Van Helsing (2004) Full HD 1080p Latino

    2004
    Van Helsing (2004) Full HD 1080p Latino

    4.9 2h 11m 2004

    Descargar Van Helsing (2004) Full HD 1080p Latino. Siglo XIX. En medio de los montes de los Cárpatos...

    Director: Sylvie Chesneau

    Género: Acción

    Actores: Will Kemp

  • Van Helsing (2004) REMUX 1080p Latino

    Van Helsing (2004) REMUX 1080p Latino

    2004
    Van Helsing (2004) REMUX 1080p Latino

    5.0 2h 11m 2004

    Descargar Van Helsing (2004) REMUX 1080p Latino. Siglo XIX. En medio de los montes de los Cárpatos está...

    Director: Sylvie Chesneau

    Género: Acción

    Actores: Zuzana Durdinová

  • Van Helsing (2004) 4K UHD HDR Latino

    Van Helsing (2004) 4K UHD HDR Latino

    2004
    Van Helsing (2004) 4K UHD HDR Latino

    0.0 2h 11m 2004

    Descargar Van Helsing (2004) 4K UHD HDR Latino. Siglo XIX. En medio de los montes de los Cárpatos está...

    Director: Sylvie Chesneau

    Género: Acción

    Actores: Zuzana Durdinová

  • Déjà Vu (2006) 1080p Latino

    Déjà Vu (2006) 1080p Latino

    2006
    Déjà Vu (2006) 1080p Latino

    0.0 2h 6m 2006

    Descargar Déjà Vu (2006) 1080p Latino. Tras una terrible explosión de una bomba en un Ferry de Nueva...

    Director: Tony Scott

    Género: Acción

    Actores: Yvonne Landry

Comentarios 3
  • ocpgaiden - 15 junio, 2020

    Gracias por resubir las 4 peliculas de Daniel Craig (007), saludos

  • Sir Valentinox - 10 diciembre, 2019

    alguien puede subir de nuevo la saga de daniel craig los link están caídos

  • ocpgaiden - 01 septiembre, 2018

    Gracias por 007 Spectre, saludos