Special (2019) Temporada 1 WEB-DL 1080p Latino

290 vistas
1 estrella2 estrellas3 estrellas4 estrellas5 estrellas (6 votos, promedio: 3,50 de 5)
Cargando…

Información de Special (2019) Temporada 1 WEB-DL 1080p Latino

Datos de la película

  • Calidad:
  • Audio: Español Latino AC3 5.1 Netflix - Ingles AC3 5.1 Netflix
  • Subtitulos: Español Latino SRT- FORZADOS SRT
  • Resolución: 1920x1080
  • Formato: MKV
  • Codec: H.264
  • Encoder: cinemaniahdd
  • Mediainfo: Clic para Mostrar Datos Ver
  • Special T01\Special S01E01 NF WEB-DL 1080p Latino.mkv
    Format                      : Matroska
    Format version              : Version 4
    File size                   : 589 MiB
    Duration                    : 14 min 17 s
    Overall bit rate mode       : Variable
    Overall bit rate            : 5 760 kb/s
    Movie name                  : Special S01E01
    Encoded date                : UTC 2019-04-12 15:39:49 / UTC 2019-03-28 20:37:20
    Writing application         : mkvmerge v11.0.0 ('Alive') 64bit
    Writing library             : libebml v1.3.4 + libmatroska v1.4.5 / Lavf58.0.0

    Video
    ID                          : 1
    Format                      : AVC
    Format/Info                 : Advanced Video Codec
    Format profile              : [email protected]
    Format settings             : CABAC / 3 Ref Frames
    Format settings, CABAC      : Yes
    Format settings, ReFrames   : 3 frames
    Codec ID                    : V_MPEG4/ISO/AVC
    Duration                    : 14 min 17 s
    Bit rate mode               : Variable
    Bit rate                    : 5 110 kb/s
    Maximum bit rate            : 7 665 kb/s
    Width                       : 1 920 pixels
    Height                      : 1 080 pixels
    Display aspect ratio        : 16:9
    Frame rate mode             : Constant
    Frame rate                  : 23.976 (24000/1001) FPS
    Color space                 : YUV
    Chroma subsampling          : 4:2:0
    Bit depth                   : 8 bits
    Scan type                   : Progressive
    Bits/(Pixel*Frame)          : 0.103
    Stream size                 : 499 MiB (85%)
    Title                       : CinemaniaHDD
    Writing library             : x264 core 148 r2715 7e75228
    Encoding settings           : cabac=1 / ref=3 / deblock=1:0:0 / analyse=0x1:0x111 / me=umh / subme=10 / psy=1 / psy_rd=1.00:0.00 / mixed_ref=1 / me_range=24 / chroma_me=1 / trellis=2 / 8x8dct=0 / cqm=0 / deadzone=21,11 / fast_pskip=1 / chroma_qp_offset=-2 / threads=8 / lookahead_threads=1 / sliced_threads=0 / nr=0 / decimate=1 / interlaced=0 / bluray_compat=0 / stitchable=1 / constrained_intra=0 / bframes=2 / b_pyramid=0 / b_adapt=2 / b_bias=0 / direct=3 / weightb=1 / open_gop=0 / weightp=2 / keyint=48 / keyint_min=25 / scenecut=0 / intra_refresh=0 / rc_lookahead=48 / rc=2pass / mbtree=1 / bitrate=5110 / ratetol=1.0 / qcomp=0.50 / qpmin=6 / qpmax=51 / qpstep=4 / cplxblur=20.0 / qblur=0.5 / vbv_maxrate=7665 / vbv_bufsize=10220 / nal_hrd=vbr / filler=0 / ip_ratio=1.40 / aq=1:1.00
    Default                     : Yes
    Forced                      : No
    Statistics Tags Issue       : mkvmerge v11.0.0 ('Alive') 64bit 2019-04-12 15:39:49 / mkvmerge v11.0.0 ('Alive') 64bit 2019-04-12 15:39:49 / UTC 2019-03-28 20:37:20
    FromStats_BitRate           : 4991486
    FromStats_Duration          : 00:14:17.232000000
    FromStats_FrameCount        : 20553
    FromStats_StreamSize        : 534857713

    Audio #1
    ID                          : 2
    Format                      : AC-3
    Format/Info                 : Audio Coding 3
    Commercial name             : Dolby Digital
    Codec ID                    : A_AC3
    Duration                    : 14 min 17 s
    Bit rate mode               : Constant
    Bit rate                    : 384 kb/s
    Channel(s)                  : 6 channels
    Channel layout              : L R C LFE Ls Rs
    Sampling rate               : 48.0 kHz
    Frame rate                  : 31.250 FPS (1536 SPF)
    Bit depth                   : 16 bits
    Compression mode            : Lossy
    Stream size                 : 39.3 MiB (7%)
    Title                       : Español latino [CinemaniaHDD]
    Language                    : Spanish
    Service kind                : Complete Main
    Default                     : Yes
    Forced                      : No
    Encoded date                : UTC 2019-03-28 20:37:20
    Statistics Tags Issue       : mkvmerge v11.0.0 ('Alive') 64bit 2019-04-12 15:39:49 / mkvmerge v11.0.0 ('Alive') 64bit 2019-04-12 15:39:49 / UTC 2019-03-28 20:37:20
    FromStats_BitRate           : 384000
    FromStats_Duration          : 00:14:17.504000000
    FromStats_FrameCount        : 26797
    FromStats_StreamSize        : 41160192

    Audio #2
    ID                          : 3
    Format                      : AC-3
    Format/Info                 : Audio Coding 3
    Commercial name             : Dolby Digital
    Codec ID                    : A_AC3
    Duration                    : 14 min 17 s
    Bit rate mode               : Constant
    Bit rate                    : 384 kb/s
    Channel(s)                  : 6 channels
    Channel layout              : L R C LFE Ls Rs
    Sampling rate               : 48.0 kHz
    Frame rate                  : 31.250 FPS (1536 SPF)
    Bit depth                   : 16 bits
    Compression mode            : Lossy
    Stream size                 : 39.3 MiB (7%)
    Title                       : Inglés [CinemaniaHDD]
    Language                    : English
    Service kind                : Complete Main
    Default                     : No
    Forced                      : No
    Encoded date                : UTC 2019-03-28 20:37:20
    Statistics Tags Issue       : mkvmerge v11.0.0 ('Alive') 64bit 2019-04-12 15:39:49 / mkvmerge v11.0.0 ('Alive') 64bit 2019-04-12 15:39:49 / UTC 2019-03-28 20:37:20
    FromStats_BitRate           : 384000
    FromStats_Duration          : 00:14:17.504000000
    FromStats_FrameCount        : 26797
    FromStats_StreamSize        : 41160192

    Text #1
    ID                          : 4
    Format                      : UTF-8
    Codec ID                    : S_TEXT/UTF8
    Codec ID/Info               : UTF-8 Plain Text
    Title                       : Forzados [CinemaniaHDD]
    Language                    : Spanish
    Default                     : Yes
    Forced                      : Yes
    Statistics Tags Issue       : mkvmerge v11.0.0 ('Alive') 64bit 2019-04-12 15:39:49 / mkvmerge v11.0.0 ('Alive') 64bit 2019-04-12 15:39:49 / UTC 2019-03-28 20:37:20
    FromStats_BitRate           : 1
    FromStats_Duration          : 00:13:35.398000000
    FromStats_FrameCount        : 6
    FromStats_StreamSize        : 172

    Text #2
    ID                          : 5
    Format                      : UTF-8
    Codec ID                    : S_TEXT/UTF8
    Codec ID/Info               : UTF-8 Plain Text
    Title                       : Español latino [CinemaniaHDD]
    Language                    : Spanish
    Default                     : No
    Forced                      : No
    Statistics Tags Issue       : mkvmerge v11.0.0 ('Alive') 64bit 2019-04-12 15:39:49 / mkvmerge v11.0.0 ('Alive') 64bit 2019-04-12 15:39:49 / UTC 2019-03-28 20:37:20
    FromStats_BitRate           : 69
    FromStats_Duration          : 00:13:35.398000000
    FromStats_FrameCount        : 247
    FromStats_StreamSize        : 7038

  • Peso: 600 MiB Aprox. Total 3.64 GiB

Sinopsis

Ryan es un joven gay con una leve parálisis cerebral que decide reescribir su identidad y perseguir la vida que quiere. Después de años sin futuro, trabajando en pijama como bloguero y comunicándose principalmente a través de mensajes de texto, Ryan finalmente descubrió cómo mejorar su vida hacia la edad adulta.

Ficha técnica

  • Titulo original: Special
  • Fecha de lanzamiento: 12-04-2019 (US)
  • Director: Ryan O'Connell
  • Género: Comedia
  • Puntuación: 3.5 6 votos
  • Duración:
    0h 12m

Video trailer de la película

Enlaces de descarga

Rip de Bluray

Descargar Special (2019) Temporada 1 WEB-DL 1080p Latino




Aportes de DPeliculasHDmega la pass es:dpeliculashdmega.org Aportes de CinemaniaHD la pass es:cinemaniahdd.com
Guardado en : Comedia

Películas relacionadas

  • Arizona (2018) 1080p Latino

    2018
    Arizona (2018) 1080p Latino

    5.0 1h 25m 2018

    Ambientada en medio de la crisis de la vivienda de 2009, esta oscura y cómica historia sigue a Cassie...

    Director: Mara Herdmann

    Género: Comedia

    Actores: Vivian Nesbitt

  • Green Book (2018) 1080p Latino

    2018
    Green Book (2018) 1080p Latino

    4.5 2h 10m 2018

    Descargar Green Book (2018) 1080p Latino. Años 60. Cuando Tony Lip (Viggo Mortensen), un rudo italoamericano...

    Director: Peter Farrelly

    Género: Comedia

    Actores: William E. Harris

Comentarios 0