Spartacus Sangre y Arena (2010) Primera Temporada Full 1080p Latino

1.484 vistas
1 estrella2 estrellas3 estrellas4 estrellas5 estrellas (6 votos, promedio: 5,00 de 5)
Cargando…

Información de Spartacus Sangre y Arena (2010) Primera Temporada Full 1080p Latino

Datos de la película

  • Calidad: Full 1080p
  • Audio: Español Latino AC3 2.0 BLURAY - Ingles AC3 5.1 BLURAY
  • Subtitulos: Español Latino PGS - Ingles PGS
  • Resolución: 1920x1080p
  • Formato: MKV
  • Codec: H.264
  • Encoder: Dracarys
  • Mediainfo: Clic para Mostrar Datos Ver
  • Format                                   : Matroska
    Format version                           : Version 4 / Version 2
    File size                                : 3.15 GiB
    Duration                                 : 55 min 10 s
    Overall bit rate                         : 8 167 kb/s
    Movie name                               : CinemaniaHDD.net
    Encoded date                             : UTC 2018-08-28 22:52:42 / UTC 2018-08-26T04:47:14Z
    Writing application                      : mkvmerge v15.0.0 ('Duel with the Devil') 64-bit
    Writing library                          : libebml v1.3.5 + libmatroska v1.4.5 / Lavf57.7.2

    Video
    ID                                       : 1
    Format                                   : AVC
    Format/Info                              : Advanced Video Codec
    Format profile                           : High@L4.1
    Format settings                          : CABAC / 4 Ref Frames
    Format settings, CABAC                   : Yes
    Format settings, RefFrames               : 4 frames
    Codec ID                                 : V_MPEG4/ISO/AVC
    Duration                                 : 55 min 10 s
    Bit rate                                 : 7 332 kb/s
    Width                                    : 1 920 pixels
    Height                                   : 1 080 pixels
    Display aspect ratio                     : 16:9
    Frame rate mode                          : Constant
    Frame rate                               : 23.976 (24000/1001) FPS
    Color space                              : YUV
    Chroma subsampling                       : 4:2:0
    Bit depth                                : 8 bits
    Scan type                                : Progressive
    Bits/(Pixel*Frame)                       : 0.147
    Stream size                              : 2.83 GiB (90%)
    Title                                    : Spartacus Sangre y Arena (2010) S01E05 [Juegos con la sombra] Full 1080p Latino
    Writing library                          : x264 core 148 r2708 86b7198
    Encoding settings                        : cabac=1 / ref=4 / deblock=1:0:0 / analyse=0x3:0x133 / me=esa / subme=10 / psy=1 / psy_rd=1.00:0.00 / mixed_ref=1 / me_range=24 / chroma_me=1 / trellis=2 / 8x8dct=1 / cqm=0 / deadzone=21,11 / fast_pskip=1 / chroma_qp_offset=-2 / threads=34 / lookahead_threads=5 / sliced_threads=0 / nr=0 / decimate=1 / interlaced=0 / bluray_compat=0 / constrained_intra=0 / bframes=8 / b_pyramid=2 / b_adapt=2 / b_bias=0 / direct=3 / weightb=1 / open_gop=0 / weightp=2 / keyint=240 / keyint_min=24 / scenecut=40 / intra_refresh=0 / rc_lookahead=60 / rc=crf / mbtree=1 / crf=20.0 / qcomp=0.60 / qpmin=0 / qpmax=69 / qpstep=4 / vbv_maxrate=62500 / vbv_bufsize=78125 / crf_max=0.0 / nal_hrd=none / filler=0 / ip_ratio=1.40 / aq=1:1.00
    Language                                 : English
    Default                                  : Yes
    Forced                                   : No
    Color range                              : Limited
    Color primaries                          : BT.709
    Transfer characteristics                 : BT.709
    Matrix coefficients                      : BT.709
    Statistics Tags Issue                    : mkvmerge v15.0.0 ('Duel with the Devil') 64-bit 2018-08-28 22:52:42 / mkvmerge v15.0.0 ('Duel with the Devil') 64-bit 2018-08-28 22:52:42 / UTC 2018-08-26T04:47:14Z
    FromStats_BitRate                        : 7474419
    FromStats_Duration                       : 00:55:09.557000000
    FromStats_FrameCount                     : 79350
    FromStats_StreamSize                     : 3092127236

    Audio #1
    ID                                       : 2
    Format                                   : AC-3
    Format/Info                              : Audio Coding 3
    Format settings, Endianness              : Big
    Codec ID                                 : A_AC3
    Duration                                 : 55 min 10 s
    Bit rate mode                            : Constant
    Bit rate                                 : 224 kb/s
    Channel(s)                               : 2 channels
    Channel positions                        : Front: L R
    Sampling rate                            : 48.0 kHz
    Frame rate                               : 31.250 FPS (1536 SPF)
    Bit depth                                : 16 bits
    Compression mode                         : Lossy
    Delay relative to video                  : 24 ms
    Stream size                              : 88.4 MiB (3%)
    Language                                 : Spanish
    Service kind                             : Complete Main
    Default                                  : Yes
    Forced                                   : No
    Statistics Tags Issue                    : mkvmerge v15.0.0 ('Duel with the Devil') 64-bit 2018-08-28 22:52:42 / mkvmerge v15.0.0 ('Duel with the Devil') 64-bit 2018-08-28 22:52:42 / UTC 2018-08-26T04:47:14Z
    FromStats_BitRate                        : 224000
    FromStats_Duration                       : 00:55:10.336000000
    FromStats_FrameCount                     : 103448
    FromStats_StreamSize                     : 92689408

    Audio #2
    ID                                       : 3
    Format                                   : AC-3
    Format/Info                              : Audio Coding 3
    Format settings, Endianness              : Big
    Codec ID                                 : A_AC3
    Duration                                 : 55 min 10 s
    Bit rate mode                            : Constant
    Bit rate                                 : 448 kb/s
    Channel(s)                               : 6 channels
    Channel positions                        : Front: L C R, Side: L R, LFE
    Sampling rate                            : 48.0 kHz
    Frame rate                               : 31.250 FPS (1536 SPF)
    Bit depth                                : 16 bits
    Compression mode                         : Lossy
    Stream size                              : 177 MiB (5%)
    Language                                 : English
    Service kind                             : Complete Main
    Default                                  : No
    Forced                                   : No
    Statistics Tags Issue                    : mkvmerge v15.0.0 ('Duel with the Devil') 64-bit 2018-08-28 22:52:42 / mkvmerge v15.0.0 ('Duel with the Devil') 64-bit 2018-08-28 22:52:42 / UTC 2018-08-26T04:47:14Z
    FromStats_BitRate                        : 448000
    FromStats_Duration                       : 00:55:09.600000000
    FromStats_FrameCount                     : 103425
    FromStats_StreamSize                     : 185337600

    Text #1
    ID                                       : 4
    Format                                   : PGS
    Muxing mode                              : zlib
    Codec ID                                 : S_HDMV/PGS
    Codec ID/Info                            : Picture based subtitle format used on BDs/HD-DVDs
    Language                                 : English
    Default                                  : No
    Forced                                   : No
    Statistics Tags Issue                    : mkvmerge v15.0.0 ('Duel with the Devil') 64-bit 2018-08-28 22:52:42 / mkvmerge v15.0.0 ('Duel with the Devil') 64-bit 2018-08-28 22:52:42 / UTC 2018-08-26T04:47:14Z
    FromStats_BitRate                        : 31713
    FromStats_Duration                       : 00:52:47.247000000
    FromStats_FrameCount                     : 1158
    FromStats_StreamSize                     : 12555586

    Text #2
    ID                                       : 5
    Format                                   : PGS
    Muxing mode                              : zlib
    Codec ID                                 : S_HDMV/PGS
    Codec ID/Info                            : Picture based subtitle format used on BDs/HD-DVDs
    Language                                 : Spanish
    Default                                  : No
    Forced                                   : No
    Statistics Tags Issue                    : mkvmerge v15.0.0 ('Duel with the Devil') 64-bit 2018-08-28 22:52:42 / mkvmerge v15.0.0 ('Duel with the Devil') 64-bit 2018-08-28 22:52:42 / UTC 2018-08-26T04:47:14Z
    FromStats_BitRate                        : 41516
    FromStats_Duration                       : 00:52:55.256000000
    FromStats_FrameCount                     : 1286
    FromStats_StreamSize                     : 16478281

    Menu
    00:00:00.000                             : :Chapter 1
    00:08:44.566                             : :Chapter 2
    00:17:35.846                             : :Chapter 3
    00:24:08.030                             : :Chapter 4
    00:33:13.533                             : :Chapter 5
    00:42:12.447                             : :Chapter 6
    00:53:18.737                             : :Chapter 7

  • Peso: 3.50 GiB X Capitulos 13 en Total

Sinopsis

Traicionado por su país. Convertido en esclavo. Renacido como guerrero. Spartacus protagoniza la historia más gráfica y visceral del gladiador más famoso de Roma. Con un reparto estelar, asistimos a una mezcla única de acción, efectos gráficos y brutales batallas. Separado del amor de su vida, Spartacus tendrá que luchar por su supervivencia, participando en un espectáculo, donde el principal entretenimiento es la muerte. En un mundo de corrupción, violencia, sexo y fama acabará interviniendo en política y vivirá atormentado por el deseo de venganza.

Ficha técnica

Video trailer de la película

Enlaces de descarga

Rip de Bluray

Descargar Spartacus Sangre y Arena (2010) Primera Temporada Full 1080p Latino




Aportes de DPeliculasHDmega la pass es:dpeliculashdmega.org Aportes de CinemaniaHD la pass es:cinemaniahdd.com
Guardado en : Drama , FULL 1080p Plateadas , Series

Películas relacionadas

  • Unbroken Path to Redemption (2018) 1080p Latino

    2018
    Unbroken Path to Redemption (2018) 1080p Latino

    0.0 1h 38m 2018

    Zamperini regresa a California donde se casó a regañadientes con Cynthia Applewhite mientras luchaba...

    Director: Harold Cronk

    Género: Drama

    Actores: Will Graham

  • Matar o morir (2018) 1080p Subtitulado

    2018
    Matar o morir (2018) 1080p Subtitulado

    5.0 1h 41m 2018

    Descargar Matar o morir [Peppermint] (2018) 1080p Subtitulado, Mega, Google Drive. LRiley North (Jennifer...

    Director: Pierre Morel

    Género: Acción

    Actores: YaYa Gosselin

  • Ni en tus sueños (2010) Full 1080p Latino

    2010
    Ni en tus sueños (2010) Full 1080p Latino

    0.0 1h 44m 2010

    Descargar Ni en tus sueños (2010) Full 1080p Latino, Mega, Google Drive. Kirk (Jay Baruchel, "Tropic...

    Director: Richard L. Fox

    Género: Comedia

    Actores: Yan Xi

  • La Chica de La Capa Roja (2011) Full 1080p Latino

    2011
    La Chica de La Capa Roja (2011) Full 1080p Latino

    4.7 1h 40m 2011

    Descargar La Chica de La Capa Roja (2011) Full 1080p Latino, Mega, Google Drive. La joven Valerie se...

    Director: Kimi Webber

    Género: Fantasía

    Actores: Virginia Madsen

  • Soy el número cuatro (2011) Full 1080p Latino

    2011
    Soy el número cuatro (2011) Full 1080p Latino

    0.0 1h 42m 2011

    Descargar Soy el número cuatro (2011) Full 1080p Latino, Mega, Google Drive. Aunque tenga la apariencia...

    Director: D.J. Caruso

    Género: Acción

    Actores: Zoe Simek

Comentarios 3
  • Walter - 26 noviembre, 2018

    Muchísimas gracias, ojala suban el resto de temporadas

  • slash - 02 septiembre, 2018

    Gracias.

  • jorge - 29 agosto, 2018

    gracias , ojala publiquen las otras temporadas