×

¿Problemas para descargar con Mozilla, EDGE? Deshabilita la opción "Abrir vinculos en una pestaña nueva" tal como lo muestra ésta imagen.

Spacewalk (2017) REMUX 1080p SUB – CMHDD

372 vistas

Información de Spacewalk (2017) REMUX 1080p SUB – CMHDD

Datos de la película

  • Calidad: Full 1080p
  • Audio: Se especifica abajo de la Sinopsis
  • Subtitulos: Español Latino SRT
  • Resolución: 1920x1080p
  • Formato: MKV
  • Codec: H.264
  • Encoder: Dracarys
  • Mediainfo: Clic para Mostrar Datos Ver
  • Format                      : Matroska
    Format version              : Version 4
    File size                   : 22.7 GiB
    Duration                    : 2 h 17 min
    Overall bit rate mode       : Variable
    Overall bit rate            : 23.7 Mb/s
    Movie name                  : Spacewalk (2017) REMUX 1080p SUB - CMHDD
    Encoded date                : UTC 2020-10-12 19:07:56
    Writing application         : mkvmerge v51.0.0 ('I Wish') 64-bit
    Writing library             : libebml v1.4.0 + libmatroska v1.6.2

    Video
    ID                          : 1
    Format                      : AVC
    Format/Info                 : Advanced Video Codec
    Format profile              : High@L4.1
    Format settings             : CABAC / 2 Ref Frames
    Format settings, CABAC      : Yes
    Format settings, Reference  : 2 frames
    Codec ID                    : V_MPEG4/ISO/AVC
    Duration                    : 2 h 17 min
    Bit rate mode               : Variable
    Bit rate                    : 19.9 Mb/s
    Width                       : 1 920 pixels
    Height                      : 1 080 pixels
    Display aspect ratio        : 16:9
    Frame rate mode             : Constant
    Frame rate                  : 23.976 (24000/1001) FPS
    Color space                 : YUV
    Chroma subsampling          : 4:2:0
    Bit depth                   : 8 bits
    Scan type                   : Progressive
    Bits/(Pixel*Frame)          : 0.400
    Stream size                 : 19.1 GiB (84%)
    Default                     : Yes
    Forced                      : No

    Audio
    ID                          : 2
    Format                      : DTS XLL
    Format/Info                 : Digital Theater Systems
    Commercial name             : DTS-HD Master Audio
    Codec ID                    : A_DTS
    Duration                    : 2 h 17 min
    Bit rate mode               : Variable
    Bit rate                    : 3 757 kb/s
    Channel(s)                  : 6 channels
    Channel layout              : C L R Ls Rs LFE
    Sampling rate               : 48.0 kHz
    Frame rate                  : 93.750 FPS (512 SPF)
    Bit depth                   : 24 bits
    Compression mode            : Lossless
    Stream size                 : 3.60 GiB (16%)
    Language                    : Russian
    Default                     : Yes
    Forced                      : No

    Text
    ID                          : 3
    Format                      : UTF-8
    Codec ID                    : S_TEXT/UTF8
    Codec ID/Info               : UTF-8 Plain Text
    Duration                    : 2 h 10 min
    Bit rate                    : 52 b/s
    Count of elements           : 1663
    Stream size                 : 50.0 KiB (0%)
    Language                    : Spanish
    Default                     : Yes
    Forced                      : No

  • Peso: 22.7 GiB

Sinopsis

En los años 60, durante la Guerra Fría y la carrera espacial entre la URSS y los Estados Unidos. Los soviéticos planean enviar a un hombre al espacio. El piloto militar Pavel Belyayev y Alexey Leonov están listos para entrar en el espacio abierto. Pero en el camino se enfrentan a muchos obstáculos y peligros.

 

 

Ruso: DTS-HD MA 5.1

Ficha técnica

Video trailer de la película

Enlaces de descarga

Rip de Bluray

Descargar Spacewalk (2017) REMUX 1080p SUB – CMHDD


Aportes de DPeliculasHDmega la pass es:dpeliculashdmega.org Aportes de CinemaniaHD la pass es:cinemaniahdd.com
Guardado en : Aventura , Drama , Historia , Suspenso

Películas relacionadas

descargar Spacewalk (2017) REMUX 1080p SUB – CMHDD Full 1080p 1080p gratis, Spacewalk (2017) REMUX 1080p SUB – CMHDD Full 1080p mega 1 link, Spacewalk (2017) REMUX 1080p SUB – CMHDD Full 1080p pelicula completa, descargar Spacewalk (2017) REMUX 1080p SUB – CMHDD Full 1080p gratis en mega.

Spacewalk (2017) REMUX 1080p SUB – CMHDD pelicula full hd, Spacewalk (2017) REMUX 1080p SUB – CMHDD mega latino, Spacewalk (2017) REMUX 1080p SUB – CMHDD 4k latino, Spacewalk (2017) REMUX 1080p SUB – CMHDD pelicula completa, Spacewalk (2017) REMUX 1080p SUB – CMHDD descargar gratis, descargar Spacewalk (2017) REMUX 1080p SUB – CMHDD pelicula latino, Spacewalk (2017) REMUX 1080p SUB – CMHDD 1 link mega, Spacewalk (2017) REMUX 1080p SUB – CMHDD 1 link google drive, Spacewalk (2017) REMUX 1080p SUB – CMHDD hd 1080p latino.
Comentarios 0