×

¿Problemas para descargar con Mozilla, EDGE? Deshabilita la opción "Abrir vinculos en una pestaña nueva" tal como lo muestra ésta imagen.

Space Jam (1996) REMUX 4K HDR Latino – CMHDD

207 vistas

Información de Space Jam (1996) REMUX 4K HDR Latino – CMHDD

Datos de la película

  • Calidad: 4K HDR
  • Audio: Se especifica abajo de la Sinopsis
  • Subtitulos: Español Latino PGS
  • Resolución: 3840x2160p
  • Formato: MKV
  • Codec: HEVC
  • Encoder: Dracarys
  • Mediainfo: Clic para Mostrar Datos Ver
  • Format                      : Matroska
    Format version              : Version 4
    File size                   : 48.3 GiB
    Duration                    : 1 h 27 min
    Overall bit rate mode       : Variable
    Overall bit rate            : 79.2 Mb/s
    Movie name                  : Space Jam (1996) REMUX 4K HDR Latino - CMHDD
    Encoded date                : UTC 2021-07-07 05:32:31
    Writing application         : mkvmerge v56.1.0 ('My Friend') 64-bit
    Writing library             : libebml v1.4.2 + libmatroska v1.6.4
    Cover                       : Yes
    Attachments                 : cover.jpg

    Video
    ID                          : 1
    ID in the original source m : 4113 (0x1011)
    Format                      : HEVC
    Format/Info                 : High Efficiency Video Coding
    Format profile              : Main 10@L5.1@High
    HDR format                  : SMPTE ST 2086, HDR10 compatible
    Codec ID                    : V_MPEGH/ISO/HEVC
    Duration                    : 1 h 27 min
    Bit rate                    : 74.5 Mb/s
    Width                       : 3 840 pixels
    Height                      : 2 160 pixels
    Display aspect ratio        : 16:9
    Frame rate mode             : Constant
    Frame rate                  : 23.976 (24000/1001) FPS
    Color space                 : YUV
    Chroma subsampling          : 4:2:0 (Type 2)
    Bit depth                   : 10 bits
    Bits/(Pixel*Frame)          : 0.374
    Stream size                 : 45.4 GiB (94%)
    Default                     : Yes
    Forced                      : No
    Color range                 : Limited
    Color primaries             : BT.2020
    Transfer characteristics    : PQ
    Matrix coefficients         : BT.2020 non-constant
    Mastering display color pri : Display P3
    Mastering display luminance : min: 0.0001 cd/m2, max: 1000 cd/m2
    Maximum Content Light Level : 901 cd/m2
    Maximum Frame-Average Light : 270 cd/m2
    Original source medium      : Blu-ray

    Audio #1
    ID                          : 2
    ID in the original source m : 4352 (0x1100)
    Format                      : MLP FBA 16-ch
    Format/Info                 : Meridian Lossless Packing FBA with 16-channel presentation
    Commercial name             : Dolby TrueHD with Dolby Atmos
    Codec ID                    : A_TRUEHD
    Duration                    : 1 h 27 min
    Bit rate mode               : Variable
    Bit rate                    : 3 580 kb/s
    Maximum bit rate            : 5 421 kb/s
    Channel(s)                  : 8 channels
    Channel layout              : L R C LFE Ls Rs Lb Rb
    Sampling rate               : 48.0 kHz
    Frame rate                  : 1 200.000 FPS (40 SPF)
    Compression mode            : Lossless
    Stream size                 : 2.18 GiB (5%)
    Language                    : English
    Default                     : No
    Forced                      : No
    Original source medium      : Blu-ray
    Number of dynamic objects   : 11
    Bed channel count           : 1 channel
    Bed channel configuration   : LFE

    Audio #2
    ID                          : 3
    ID in the original source m : 4352 (0x1100)
    Format                      : AC-3
    Format/Info                 : Audio Coding 3
    Commercial name             : Dolby Digital
    Codec ID                    : A_AC3
    Duration                    : 1 h 27 min
    Bit rate mode               : Constant
    Bit rate                    : 448 kb/s
    Channel(s)                  : 6 channels
    Channel layout              : L R C LFE Ls Rs
    Sampling rate               : 48.0 kHz
    Frame rate                  : 31.250 FPS (1536 SPF)
    Compression mode            : Lossy
    Stream size                 : 280 MiB (1%)
    Language                    : English
    Service kind                : Complete Main
    Default                     : No
    Forced                      : No
    Original source medium      : Blu-ray

    Audio #3
    ID                          : 4
    ID in the original source m : 4357 (0x1105)
    Format                      : AC-3
    Format/Info                 : Audio Coding 3
    Commercial name             : Dolby Digital
    Codec ID                    : A_AC3
    Duration                    : 1 h 27 min
    Bit rate mode               : Constant
    Bit rate                    : 640 kb/s
    Channel(s)                  : 6 channels
    Channel layout              : L R C LFE Ls Rs
    Sampling rate               : 48.0 kHz
    Frame rate                  : 31.250 FPS (1536 SPF)
    Compression mode            : Lossy
    Stream size                 : 400 MiB (1%)
    Language                    : Spanish
    Service kind                : Complete Main
    Default                     : Yes
    Forced                      : No
    Original source medium      : Blu-ray

    Text #1
    ID                          : 5
    ID in the original source m : 4774 (0x12A6)
    Format                      : PGS
    Muxing mode                 : zlib
    Codec ID                    : S_HDMV/PGS
    Codec ID/Info               : Picture based subtitle format used on BDs/HD-DVDs
    Duration                    : 1 h 26 min
    Bit rate                    : 30.1 kb/s
    Count of elements           : 2398
    Stream size                 : 18.6 MiB (0%)
    Language                    : Spanish
    Default                     : No
    Forced                      : No
    Original source medium      : Blu-ray

    Text #2
    ID                          : 6
    ID in the original source m : 4783 (0x12AF)
    Format                      : PGS
    Muxing mode                 : zlib
    Codec ID                    : S_HDMV/PGS
    Codec ID/Info               : Picture based subtitle format used on BDs/HD-DVDs
    Duration                    : 47 min 20 s
    Bit rate                    : 343 b/s
    Count of elements           : 14
    Stream size                 : 119 KiB (0%)
    Language                    : Spanish
    Default                     : No
    Forced                      : No
    Original source medium      : Blu-ray

    Menu
    00:00:00.000                : Chapter 01
    00:02:21.641                : Chapter 02
    00:05:53.853                : Chapter 03
    00:09:00.248                : Chapter 04
    00:11:34.944                : Chapter 05
    00:14:07.012                : Chapter 06
    00:18:13.467                : Chapter 07
    00:21:35.627                : Chapter 08
    00:24:25.297                : Chapter 09
    00:25:46.086                : Chapter 10
    00:27:44.412                : Chapter 11
    00:30:25.532                : Chapter 12
    00:31:18.710                : Chapter 13
    00:34:04.000                : Chapter 14
    00:36:58.299                : Chapter 15
    00:38:10.913                : Chapter 16
    00:39:38.417                : Chapter 17
    00:42:10.069                : Chapter 18
    00:45:53.083                : Chapter 19
    00:46:38.712                : Chapter 20
    00:47:10.786                : Chapter 21
    00:48:04.798                : Chapter 22
    00:50:00.038                : Chapter 23
    00:53:39.883                : Chapter 24
    00:56:55.745                : Chapter 25
    00:57:55.972                : Chapter 26
    01:00:13.067                : Chapter 27
    01:02:26.576                : Chapter 28
    01:04:08.678                : Chapter 29
    01:06:05.419                : Chapter 30
    01:07:41.474                : Chapter 31
    01:09:31.792                : Chapter 32
    01:11:46.802                : Chapter 33
    01:12:29.303                : Chapter 34
    01:14:15.451                : Chapter 35
    01:15:24.895                : Chapter 36
    01:18:22.489                : Chapter 37
    01:26:52.207                : Chapter 38

  • Peso: 48.3 GiB

Sinopsis

Bugs Bunny y su equipo desafían a los Nerdlucks (un grupo de pequeños extraterrestres) a un partido de baloncesto para decidir si los Looney Tunes permanecen en la Tierra o se trasladan a una lejana galaxia para trabajar en un parque de atracciones de Montaña Tontolandia. Los Nerdlucks cuentan con una poderosa arma secreta que los hace superiores: se han apoderado de las mejores cualidades de las estrellas de la NBA (Charles Barkley y Patrick Ewing). Pero también los Looney poseen un arma secreta: ¡Michael Jordan!

 

Latino: AC3 5.1  –  Ingles: TrueHD 7.1 + AC3 5,1

Ficha técnica

Video trailer de la película

Enlaces de descarga

Rip de Bluray

Descargar Space Jam (1996) REMUX 4K HDR Latino – CMHDD


Aportes de DPeliculasHDmega la pass es:dpeliculashdmega.org Aportes de CinemaniaHD la pass es:cinemaniahdd.com

Películas relacionadas

descargar Space Jam (1996) REMUX 4K HDR Latino – CMHDD 4K HDR 1080p gratis, Space Jam (1996) REMUX 4K HDR Latino – CMHDD 4K HDR mega 1 link, Space Jam (1996) REMUX 4K HDR Latino – CMHDD 4K HDR pelicula completa, descargar Space Jam (1996) REMUX 4K HDR Latino – CMHDD 4K HDR gratis en mega.

Space Jam (1996) REMUX 4K HDR Latino – CMHDD pelicula full hd, Space Jam (1996) REMUX 4K HDR Latino – CMHDD mega latino, Space Jam (1996) REMUX 4K HDR Latino – CMHDD 4k latino, Space Jam (1996) REMUX 4K HDR Latino – CMHDD pelicula completa, Space Jam (1996) REMUX 4K HDR Latino – CMHDD descargar gratis, descargar Space Jam (1996) REMUX 4K HDR Latino – CMHDD pelicula latino, Space Jam (1996) REMUX 4K HDR Latino – CMHDD 1 link mega, Space Jam (1996) REMUX 4K HDR Latino – CMHDD 1 link google drive, Space Jam (1996) REMUX 4K HDR Latino – CMHDD hd 1080p latino.