Space Jam (1996) REMUX 1080p Latino – CMHDD

52 vistas
1 estrella2 estrellas3 estrellas4 estrellas5 estrellas (Ninguna valoración todavía)
Cargando...

Información de Space Jam (1996) REMUX 1080p Latino – CMHDD

Datos de la película

  • Calidad: Full 1080p
  • Audio: Español Latino AC3 5.1 BLURAY - Ingles DTS 5.1 BLURAY
  • Subtitulos: Español Latino PGS
  • Resolución: 1920x1080p
  • Formato: MKV
  • Codec: H.264
  • Encoder: Dracarys
  • Mediainfo: Clic para Mostrar Datos Ver
  • Format                      : Matroska
    Format version              : Version 4
    File size                   : 14.4 GiB
    Duration                    : 1 h 27 min
    Overall bit rate mode       : Variable
    Overall bit rate            : 23.6 Mb/s
    Movie name                  : Space Jam (1996) REMUX 1080p Latino - CMHDD
    Encoded date                : UTC 2021-07-25 20:30:31
    Writing application         : mkvmerge v56.1.0 ('My Friend') 64-bit
    Writing library             : libebml v1.4.2 + libmatroska v1.6.4
    Cover                       : Yes
    Attachments                 : cover.jpg

    Video
    ID                          : 1
    ID in the original source m : 4113 (0x1011)
    Format                      : AVC
    Format/Info                 : Advanced Video Codec
    Format profile              : High@L4.1
    Format settings             : CABAC / 2 Ref Frames
    Format settings, CABAC      : Yes
    Format settings, Reference  : 2 frames
    Codec ID                    : V_MPEG4/ISO/AVC
    Duration                    : 1 h 27 min
    Bit rate mode               : Variable
    Bit rate                    : 19.0 Mb/s
    Width                       : 1 920 pixels
    Height                      : 1 080 pixels
    Display aspect ratio        : 16:9
    Frame rate mode             : Constant
    Frame rate                  : 23.976 (24000/1001) FPS
    Color space                 : YUV
    Chroma subsampling          : 4:2:0
    Bit depth                   : 8 bits
    Scan type                   : Progressive
    Bits/(Pixel*Frame)          : 0.382
    Stream size                 : 11.6 GiB (80%)
    Default                     : Yes
    Forced                      : No
    Original source medium      : Blu-ray

    Audio #1
    ID                          : 2
    ID in the original source m : 4352 (0x1100)
    Format                      : DTS XLL
    Format/Info                 : Digital Theater Systems
    Commercial name             : DTS-HD Master Audio
    Codec ID                    : A_DTS
    Duration                    : 1 h 27 min
    Bit rate mode               : Variable
    Bit rate                    : 3 974 kb/s
    Channel(s)                  : 6 channels
    Channel layout              : C L R Ls Rs LFE
    Sampling rate               : 48.0 kHz
    Frame rate                  : 93.750 FPS (512 SPF)
    Bit depth                   : 24 bits
    Compression mode            : Lossless
    Stream size                 : 2.42 GiB (17%)
    Language                    : English
    Default                     : No
    Forced                      : No
    Original source medium      : Blu-ray

    Audio #2
    ID                          : 3
    ID in the original source m : 4357 (0x1105)
    Format                      : AC-3
    Format/Info                 : Audio Coding 3
    Commercial name             : Dolby Digital
    Codec ID                    : A_AC3
    Duration                    : 1 h 27 min
    Bit rate mode               : Constant
    Bit rate                    : 640 kb/s
    Channel(s)                  : 6 channels
    Channel layout              : L R C LFE Ls Rs
    Sampling rate               : 48.0 kHz
    Frame rate                  : 31.250 FPS (1536 SPF)
    Compression mode            : Lossy
    Stream size                 : 400 MiB (3%)
    Language                    : Spanish
    Service kind                : Complete Main
    Default                     : Yes
    Forced                      : No
    Original source medium      : Blu-ray

    Text
    ID                          : 4
    ID in the original source m : 4613 (0x1205)
    Format                      : PGS
    Muxing mode                 : zlib
    Codec ID                    : S_HDMV/PGS
    Codec ID/Info               : Picture based subtitle format used on BDs/HD-DVDs
    Duration                    : 1 h 26 min
    Bit rate                    : 29.8 kb/s
    Count of elements           : 2384
    Stream size                 : 18.4 MiB (0%)
    Language                    : Spanish
    Default                     : No
    Forced                      : No
    Original source medium      : Blu-ray

    Menu
    00:00:00.000                : Chapter 01
    00:02:22.642                : Chapter 02
    00:05:54.854                : Chapter 03
    00:09:01.123                : Chapter 04
    00:11:35.945                : Chapter 05
    00:14:09.139                : Chapter 06
    00:18:14.468                : Chapter 07
    00:21:36.628                : Chapter 08
    00:24:26.339                : Chapter 09
    00:25:47.087                : Chapter 10
    00:27:45.413                : Chapter 11
    00:30:26.533                : Chapter 12
    00:31:19.711                : Chapter 13
    00:34:05.001                : Chapter 14
    00:36:59.300                : Chapter 15
    00:38:11.914                : Chapter 16
    00:39:39.418                : Chapter 17
    00:42:11.070                : Chapter 18
    00:45:54.084                : Chapter 19
    00:46:39.755                : Chapter 20
    00:47:11.787                : Chapter 21
    00:48:05.799                : Chapter 22
    00:50:01.039                : Chapter 23
    00:53:40.884                : Chapter 24
    00:56:56.746                : Chapter 25
    00:57:56.973                : Chapter 26
    01:00:14.068                : Chapter 27
    01:02:27.577                : Chapter 28
    01:04:09.679                : Chapter 29
    01:06:06.420                : Chapter 30
    01:07:42.475                : Chapter 31
    01:09:32.793                : Chapter 32
    01:11:49.388                : Chapter 33
    01:12:30.304                : Chapter 34
    01:14:16.452                : Chapter 35
    01:15:25.896                : Chapter 36
    01:18:23.490                : Chapter 37
    01:26:53.208                : Chapter 38

  • Peso: 14.4 GiB

Sinopsis

Bugs Bunny y su equipo desafían a los Nerdlucks (un grupo de pequeños extraterrestres) a un partido de baloncesto para decidir si los Looney Tunes permanecen en la Tierra o se trasladan a una lejana galaxia para trabajar en un parque de atracciones de Montaña Tontolandia. Los Nerdlucks cuentan con una poderosa arma secreta que los hace superiores: se han apoderado de las mejores cualidades de las estrellas de la NBA (Charles Barkley y Patrick Ewing). Pero también los Looney poseen un arma secreta: ¡Michael Jordan!

Ficha técnica

Video trailer de la película

Enlaces de descarga

Rip de Bluray

Descargar Space Jam (1996) REMUX 1080p Latino – CMHDD


Aportes de DPeliculasHDmega la pass es:dpeliculashdmega.org Aportes de CinemaniaHD la pass es:cinemaniahdd.com

Películas relacionadas

  • No, porque me enamoro (2020) AMZN Web-DL 1080p Latino

    No, porque me enamoro (2020) AMZN Web-DL 1080p Latino

    2020
    No, porque me enamoro (2020) AMZN Web-DL 1080p Latino

    0.0 1h 40m 2020

    Descargar No, porque me enamoro (2020) AMZN Web-DL 1080p Latino. Daniela (Sofia de Llaca), una chica...

    Director: Santiago Limón

    Género: Comedia

    Actores: Sofía De Llaca Mata

  • La Excepcion A La Regla (2016) REMUX 1080p Latino

    La Excepcion A La Regla (2016) REMUX 1080p Latino

    2016
    La Excepcion A La Regla (2016) REMUX 1080p Latino

    5.0 2h 6m 2016

    Descargar La Excepcion A La Regla (2016) REMUX 1080p Latino. Hollywood, año 1958. La joven baptista...

    Director: Warren Beatty

    Género: Comedia

    Actores: Warren Beatty

  • The Matrix (1999) REMUX 4K HDR Latino – CMHDD

    The Matrix (1999) REMUX 4K HDR Latino – CMHDD

    1999
    The Matrix (1999) REMUX 4K HDR Latino – CMHDD

    1.0 2h 18m 1999

    Thomas Anderson lleva una doble vida: por el día es programador en una importante empresa de software,...

    Director: Victoria Sullivan

    Género: Acción

    Actores: Tamara Brown

Space Jam (1996) REMUX 1080p Latino – CMHDD pelicula full hd, Space Jam (1996) REMUX 1080p Latino – CMHDD mega latino, Space Jam (1996) REMUX 1080p Latino – CMHDD 4k latino, Space Jam (1996) REMUX 1080p Latino – CMHDD pelicula completa, Space Jam (1996) REMUX 1080p Latino – CMHDD descargar gratis, descargar Space Jam (1996) REMUX 1080p Latino – CMHDD pelicula latino, Space Jam (1996) REMUX 1080p Latino – CMHDD 1 link mega, Space Jam (1996) REMUX 1080p Latino – CMHDD 1 link google drive, Space Jam (1996) REMUX 1080p Latino – CMHDD hd 1080p latino.
Comentarios 0