×

¿Problemas para descargar con Mozilla, EDGE? Deshabilita la opción "Abrir vinculos en una pestaña nueva" tal como lo muestra ésta imagen.

Soy leyenda (2007) REMUX 1080p Latino – CMHDD

287 vistas

Información de Soy leyenda (2007) REMUX 1080p Latino – CMHDD

Datos de la película

  • Calidad: Full 1080p
  • Audio: Español Latino AC3 5.1 BLURAY - Ingles DTS 5.1 BLURAY
  • Subtitulos: Español Latino PGS
  • Resolución: 1920x1080p
  • Formato: MKV
  • Codec: H.264
  • Encoder: Dracarys
  • Mediainfo: Clic para Mostrar Datos Ver
  • Format                      : Matroska
    Format version              : Version 4
    File size                   : 15.2 GiB
    Duration                    : 1 h 40 min
    Overall bit rate mode       : Variable
    Overall bit rate            : 21.7 Mb/s
    Movie name                  : Soy leyenda (2007) REMUX 1080p Latino - CMHDD
    Encoded date                : UTC 2021-01-22 15:47:28
    Writing application         : mkvmerge v51.0.0 ('I Wish') 64-bit
    Writing library             : libebml v1.4.0 + libmatroska v1.6.2

    Video
    ID                          : 1
    Format                      : VC-1
    Format profile              : Advanced@L3
    Codec ID                    : V_MS/VFW/FOURCC / WVC1
    Codec ID/Hint               : Microsoft
    Duration                    : 1 h 40 min
    Bit rate                    : 16.1 Mb/s
    Width                       : 1 920 pixels
    Height                      : 1 080 pixels
    Display aspect ratio        : 16:9
    Frame rate mode             : Constant
    Frame rate                  : 23.976 (24000/1001) FPS
    Color space                 : YUV
    Chroma subsampling          : 4:2:0
    Bit depth                   : 8 bits
    Scan type                   : Progressive
    Compression mode            : Lossy
    Bits/(Pixel*Frame)          : 0.325
    Stream size                 : 11.3 GiB (74%)
    Default                     : Yes
    Forced                      : No

    Audio #1
    ID                          : 2
    Format                      : AC-3
    Format/Info                 : Audio Coding 3
    Commercial name             : Dolby Digital
    Codec ID                    : A_AC3
    Duration                    : 1 h 40 min
    Bit rate mode               : Constant
    Bit rate                    : 448 kb/s
    Channel(s)                  : 6 channels
    Channel layout              : L R C LFE Ls Rs
    Sampling rate               : 48.0 kHz
    Frame rate                  : 31.250 FPS (1536 SPF)
    Compression mode            : Lossy
    Delay relative to video     : 2 s 0 ms
    Stream size                 : 322 MiB (2%)
    Language                    : Spanish
    Service kind                : Complete Main
    Default                     : Yes
    Forced                      : No

    Audio #2
    ID                          : 3
    Format                      : MLP FBA
    Format/Info                 : Meridian Lossless Packing FBA
    Commercial name             : Dolby TrueHD
    Codec ID                    : A_TRUEHD
    Duration                    : 1 h 40 min
    Bit rate mode               : Variable
    Bit rate                    : 1 428 kb/s
    Maximum bit rate            : 3 366 kb/s
    Channel(s)                  : 6 channels
    Channel layout              : L R C LFE Ls Rs
    Sampling rate               : 48.0 kHz
    Frame rate                  : 1 200.000 FPS (40 SPF)
    Compression mode            : Lossless
    Stream size                 : 1.00 GiB (7%)
    Language                    : English
    Default                     : No
    Forced                      : No

    Audio #3
    ID                          : 4
    Format                      : DTS XLL
    Format/Info                 : Digital Theater Systems
    Commercial name             : DTS-HD Master Audio
    Codec ID                    : A_DTS
    Duration                    : 1 h 40 min
    Bit rate mode               : Variable
    Bit rate                    : 3 623 kb/s
    Channel(s)                  : 6 channels
    Channel layout              : C L R Ls Rs LFE
    Sampling rate               : 48.0 kHz
    Frame rate                  : 93.750 FPS (512 SPF)
    Bit depth                   : 24 bits
    Compression mode            : Lossless
    Stream size                 : 2.54 GiB (17%)
    Language                    : English
    Default                     : No
    Forced                      : No

    Text #1
    ID                          : 5
    Format                      : PGS
    Muxing mode                 : zlib
    Codec ID                    : S_HDMV/PGS
    Codec ID/Info               : Picture based subtitle format used on BDs/HD-DVDs
    Duration                    : 1 h 40 min
    Bit rate                    : 16.3 kb/s
    Count of elements           : 1316
    Stream size                 : 11.7 MiB (0%)
    Language                    : Spanish
    Default                     : No
    Forced                      : No

    Text #2
    ID                          : 6
    Format                      : PGS
    Muxing mode                 : zlib
    Codec ID                    : S_HDMV/PGS
    Codec ID/Info               : Picture based subtitle format used on BDs/HD-DVDs
    Duration                    : 1 h 39 min
    Bit rate                    : 250 b/s
    Count of elements           : 20
    Stream size                 : 182 KiB (0%)
    Language                    : Spanish
    Default                     : Yes
    Forced                      : No

  • Peso: 15.2 GiB

Sinopsis

Año 2012. Robert Neville es el último hombre vivo que hay sobre la Tierra, pero no está solo. Los demás seres humanos se han convertido en unos mutantes nocturnos llamados «Darkseekers» y todos ansían beber su sangre. Durante el día vive en estado de alerta, como un cazador, y busca a los muertos vivientes mientras duermen; pero durante la noche debe esconderse de ellos y esperar el amanecer. Esta pesadilla empezó hace tres años: Neville era un brillante científico, pero no pudo impedir la expansión de un terrible virus creado por el hombre. Él ha sobrevivido porque es inmune al virus; todos los días envía mensajes por radio con la esperanza de que haya otros supervivientes, pero es inútil. Lo único que puede hacer es buscar una fórmula que le permita utilizar su sangre inmune para devolverles a los hombres su naturaleza. Pero está en inferioridad de condiciones y el tiempo se acaba.

Ficha técnica

Video trailer de la película

Enlaces de descarga

Rip de Bluray

Descargar Soy leyenda (2007) REMUX 1080p Latino – CMHDD


Aportes de DPeliculasHDmega la pass es:dpeliculashdmega.org Aportes de CinemaniaHD la pass es:cinemaniahdd.com

Películas relacionadas

descargar Soy leyenda (2007) REMUX 1080p Latino – CMHDD Full 1080p 1080p gratis, Soy leyenda (2007) REMUX 1080p Latino – CMHDD Full 1080p mega 1 link, Soy leyenda (2007) REMUX 1080p Latino – CMHDD Full 1080p pelicula completa, descargar Soy leyenda (2007) REMUX 1080p Latino – CMHDD Full 1080p gratis en mega.

Soy leyenda (2007) REMUX 1080p Latino – CMHDD pelicula full hd, Soy leyenda (2007) REMUX 1080p Latino – CMHDD mega latino, Soy leyenda (2007) REMUX 1080p Latino – CMHDD 4k latino, Soy leyenda (2007) REMUX 1080p Latino – CMHDD pelicula completa, Soy leyenda (2007) REMUX 1080p Latino – CMHDD descargar gratis, descargar Soy leyenda (2007) REMUX 1080p Latino – CMHDD pelicula latino, Soy leyenda (2007) REMUX 1080p Latino – CMHDD 1 link mega, Soy leyenda (2007) REMUX 1080p Latino – CMHDD 1 link google drive, Soy leyenda (2007) REMUX 1080p Latino – CMHDD hd 1080p latino.
Comentarios 0