Soy el número cuatro (2011) Full 1080p Latino

801 vistas
1 estrella2 estrellas3 estrellas4 estrellas5 estrellas (1 votos, promedio: 5,00 de 5)
Cargando…

Información de Soy el número cuatro (2011) Full 1080p Latino

Datos de la película

  • Calidad: Full 1080p
  • Audio: Español Latino AC3 5.1 BLURAY - Ingles DTS 5.1 BLURAY
  • Subtitulos: Español Latino PGS - Ingles PGS
  • Resolución: 1920x1080p
  • Formato: MKV
  • Codec: H.264
  • Encoder: Cinefilocool
  • Mediainfo: Clic para Mostrar Datos Ver
  • Soy El Numero Cuatro (2011) Full 1080p Latino.mkv
    Format                      : Matroska
    Format version              : Version 4
    File size                   : 11.5 GiB
    Duration                    : 1 h 49 min
    Overall bit rate            : 15.0 Mb/s
    Movie name                  : CinemaniaHDD.Net
    Encoded date                : UTC 2018-12-09 05:04:43
    Writing application         : mkvmerge v28.2.0 ('The Awakening') 64-bit
    Writing library             : libebml v1.3.6 + libmatroska v1.4.9

    Video
    ID                          : 1
    Format                      : AVC
    Format/Info                 : Advanced Video Codec
    Format profile              : [email protected]
    Format settings             : CABAC / 4 Ref Frames
    Format settings, CABAC      : Yes
    Format settings, ReFrames   : 4 frames
    Codec ID                    : V_MPEG4/ISO/AVC
    Duration                    : 1 h 49 min
    Bit rate                    : 13.0 Mb/s
    Width                       : 1 920 pixels
    Height                      : 1 080 pixels
    Display aspect ratio        : 16:9
    Frame rate mode             : Constant
    Frame rate                  : 23.976 (24000/1001) FPS
    Color space                 : YUV
    Chroma subsampling          : 4:2:0
    Bit depth                   : 8 bits
    Scan type                   : Progressive
    Bits/(Pixel*Frame)          : 0.261
    Stream size                 : 9.92 GiB (87%)
    Title                       : Full HD1080p [Bluray]
    Writing library             : x264 core 155 r2901 7d0ff22
    Encoding settings           : cabac=1 / ref=4 / deblock=1:0:0 / analyse=0x3:0x133 / me=esa / subme=10 / psy=1 / psy_rd=1.00:0.00 / mixed_ref=1 / me_range=24 / chroma_me=1 / trellis=2 / 8x8dct=1 / cqm=0 / deadzone=21,11 / fast_pskip=1 / chroma_qp_offset=-2 / threads=34 / lookahead_threads=5 / sliced_threads=0 / nr=0 / decimate=1 / interlaced=0 / bluray_compat=0 / constrained_intra=0 / bframes=8 / b_pyramid=2 / b_adapt=2 / b_bias=0 / direct=3 / weightb=1 / open_gop=0 / weightp=2 / keyint=240 / keyint_min=24 / scenecut=40 / intra_refresh=0 / rc_lookahead=60 / rc=crf / mbtree=1 / crf=18.0 / qcomp=0.60 / qpmin=0 / qpmax=69 / qpstep=4 / vbv_maxrate=62500 / vbv_bufsize=78125 / crf_max=0.0 / nal_hrd=none / filler=0 / ip_ratio=1.40 / aq=1:1.00
    Default                     : Yes
    Forced                      : Yes
    Color range                 : Limited
    Color primaries             : BT.709
    Transfer characteristics    : BT.709
    Matrix coefficients         : BT.709

    Audio #1
    ID                          : 2
    Format                      : AC-3
    Format/Info                 : Audio Coding 3
    Commercial name             : Dolby Digital
    Codec ID                    : A_AC3
    Duration                    : 1 h 49 min
    Bit rate mode               : Constant
    Bit rate                    : 640 kb/s
    Channel(s)                  : 6 channels
    Channel layout              : L R C LFE Ls Rs
    Sampling rate               : 48.0 kHz
    Frame rate                  : 31.250 FPS (1536 SPF)
    Bit depth                   : 16 bits
    Compression mode            : Lossy
    Stream size                 : 502 MiB (4%)
    Title                       : AC3_5.1_Bluray_Esp
    Language                    : Spanish
    Service kind                : Complete Main
    Default                     : Yes
    Forced                      : Yes

    Audio #2
    ID                          : 3
    Format                      : DTS
    Format/Info                 : Digital Theater Systems
    Codec ID                    : A_DTS
    Duration                    : 1 h 49 min
    Bit rate mode               : Constant
    Bit rate                    : 1 344 kb/s
    Channel(s)                  : 6 channels
    Channel layout              : C L R Ls Rs LFE
    Sampling rate               : 48.0 kHz
    Frame rate                  : 93.750 FPS (512 SPF)
    Bit depth                   : 24 bits
    Compression mode            : Lossy
    Stream size                 : 1.03 GiB (9%)
    Title                       : DTS_5.1_Bluray_Eng
    Language                    : English
    Default                     : No
    Forced                      : No

    Text #1
    ID                          : 4
    Format                      : PGS
    Muxing mode                 : zlib
    Codec ID                    : S_HDMV/PGS
    Codec ID/Info               : Picture based subtitle format used on BDs/HD-DVDs
    Duration                    : 1 h 38 min
    Bit rate                    : 863 b/s
    Count of elements           : 56
    Stream size                 : 620 KiB (0%)
    Title                       : Sub_Forzados [PGS]
    Language                    : Spanish
    Default                     : Yes
    Forced                      : Yes

    Text #2
    ID                          : 5
    Format                      : PGS
    Muxing mode                 : zlib
    Codec ID                    : S_HDMV/PGS
    Codec ID/Info               : Picture based subtitle format used on BDs/HD-DVDs
    Duration                    : 1 h 39 min
    Bit rate                    : 22.9 kb/s
    Count of elements           : 1870
    Stream size                 : 16.2 MiB (0%)
    Title                       : Sub_Esp [PGS]
    Language                    : Spanish
    Default                     : No
    Forced                      : No

    Text #3
    ID                          : 6
    Format                      : PGS
    Muxing mode                 : zlib
    Codec ID                    : S_HDMV/PGS
    Codec ID/Info               : Picture based subtitle format used on BDs/HD-DVDs
    Duration                    : 1 h 36 min
    Bit rate                    : 25.2 kb/s
    Count of elements           : 1870
    Stream size                 : 17.5 MiB (0%)
    Title                       : Sub_Eng [PGS]
    Language                    : English
    Default                     : No
    Forced                      : No

    Menu
    00:00:00.000                : :Chapter 1
    00:04:09.249                : :Chapter 2
    00:11:33.193                : :Chapter 3
    00:18:00.454                : :Chapter 4
    00:25:41.373                : :Chapter 5
    00:30:58.106                : :Chapter 6
    00:39:29.534                : :Chapter 7
    00:45:30.311                : :Chapter 8
    00:54:51.663                : :Chapter 9
    01:03:43.403                : :Chapter 10
    01:14:23.209                : :Chapter 11
    01:21:59.790                : :Chapter 12
    01:27:39.337                : :Chapter 13
    01:32:27.625                : :Chapter 14
    01:37:03.568                : :Chapter 15
    01:41:56.152                : :Chapter 16

  • Peso: 11.5 GiB

Sinopsis

Descargar Soy el número cuatro (2011) Full 1080p Latino, Mega, Google Drive. Aunque tenga la apariencia de un adolescente normal y corriente, John Smith (Alex Pettyfer) es en realidad un extraterrestre que vive entre los humanos. Su principal obsesión es ocultarse de unos enemigos que quieren matarle igual que ya han hecho con otros tres alienígenas; de ahí que John sea consciente de que él es el número cuatro y busque la protección que le brinda Henri, su guardián (Timothy Olyphant). Tras pasar por varias ciudades en una huida que no parece tener fin, John llega hasta una pequeña localidad de Ohio. Allí no sólo tendrá que hacer frente a sus enemigos, sino también a su primer amor (Dianna Agron). Además, el chico experimentará la capacidad sobrenatural para ejercer nuevos poderes y tomará contacto con los otros tres seres que no pudieron escapar a su fatídico destino.

Ficha técnica

Video trailer de la película

Enlaces de descarga

Rip de Bluray

Descargar Soy el número cuatro (2011) Full 1080p Latino




Aportes de DPeliculasHDmega la pass es:dpeliculashdmega.org Aportes de CinemaniaHD la pass es:cinemaniahdd.com

Películas relacionadas

  • The Final Wish (2018) Full 1080p Subtitulado

    2019
    The Final Wish (2018) Full 1080p Subtitulado

    0.0 1h 35m 2019

    Descargar The Final Wish (2018) Full 1080p Subtitulado. Aaron (Michael Welch) es un abogado con problemas...

    Director: Timothy Woodward Jr.

    Género: FULL 1080p Plateadas

    Actores: Tony Todd

  • La nave del terror (1997) Full 1080p Latino

    1997
    La nave del terror (1997) Full 1080p Latino

    5.0 1h 36m 1997

    En el año 2047 una nave de rescate, la "Lewis & Clark", es enviada a investigar la misteriosa reaparición...

    Director: Paul W.S. Anderson

    Género: Ciencia ficción

    Actores: Teresa May

  • Man On A Ledge (2012) Full (Open Matte) 1080P Latino

    2012
    Man On A Ledge (2012) Full (Open Matte) 1080P Latino

    5.0 1h 42m 2012

    Nick Cassidy (Sam Worthington), un antiguo agente de policía, se escapa de la cárcel y se dirige al...

    Director: Melissa Kalbfus

    Género: Acción

    Actores: William Sadler

Comentarios 0