×

¿Problemas para descargar con Mozilla, EDGE? Deshabilita la opción "Abrir vinculos en una pestaña nueva" tal como lo muestra ésta imagen.

South Park (Not Suitable for Children) (2023) WEB-DL 4K SDR Latino – CMHDD

78 vistas

Información de South Park (Not Suitable for Children) (2023) WEB-DL 4K SDR Latino – CMHDD

Datos de la película

  • Calidad: 4K UHD
  • Audio: Se especifica abajo de la Sinopsis
  • Subtitulos: Español Latino SRT
  • Resolución: 3840x2160p
  • Formato:
  • Codec: H.264
  • Encoder: Dracarys
  • Mediainfo: Clic para Mostrar Datos Ver
  • Format                      : Matroska
    Format version              : Version 4
    File size                   : 3.18 GiB
    Duration                    : 46 min 36 s
    Overall bit rate            : 9 775 kb/s
    Movie name                  : South Park (Not Suitable for Children) (2023) WEB-DL 4K SDR Latino - CMHDD
    Encoded date                : UTC 2023-12-21 21:30:40
    Writing application         : mkvmerge v47.0.0 ('Black Flag') 64-bit
    Writing library             : libebml v1.3.10 + libmatroska v1.5.2

    Video
    ID                          : 1
    Format                      : HEVC
    Format/Info                 : High Efficiency Video Coding
    Format profile              : Main@L5@Main
    Codec ID                    : V_MPEGH/ISO/HEVC
    Duration                    : 46 min 31 s
    Bit rate                    : 9 096 kb/s
    Width                       : 3 840 pixels
    Height                      : 2 160 pixels
    Display aspect ratio        : 16:9
    Frame rate mode             : Constant
    Frame rate                  : 23.976 (24000/1001) FPS
    Color space                 : YUV
    Chroma subsampling          : 4:2:0
    Bit depth                   : 8 bits
    Bits/(Pixel*Frame)          : 0.046
    Stream size                 : 2.96 GiB (93%)
    Title                       : .
    Language                    : Spanish
    Default                     : Yes
    Forced                      : Yes
    Color range                 : Limited
    Color primaries             : BT.709
    Transfer characteristics    : BT.709
    Matrix coefficients         : BT.709

    Audio #1
    ID                          : 2
    Format                      : E-AC-3
    Format/Info                 : Enhanced AC-3
    Commercial name             : Dolby Digital Plus
    Codec ID                    : A_EAC3
    Duration                    : 46 min 36 s
    Bit rate mode               : Constant
    Bit rate                    : 348 kb/s
    Channel(s)                  : 2 channels
    Channel layout              : L R
    Sampling rate               : 48.0 kHz
    Frame rate                  : 31.250 FPS (1536 SPF)
    Compression mode            : Lossy
    Stream size                 : 116 MiB (4%)
    Language                    : Spanish
    Service kind                : Complete Main
    Default                     : Yes
    Forced                      : Yes

    Audio #2
    ID                          : 3
    Format                      : E-AC-3
    Format/Info                 : Enhanced AC-3
    Commercial name             : Dolby Digital Plus
    Codec ID                    : A_EAC3
    Duration                    : 46 min 31 s
    Bit rate mode               : Constant
    Bit rate                    : 348 kb/s
    Channel(s)                  : 6 channels
    Channel layout              : L R C LFE Ls Rs
    Sampling rate               : 48.0 kHz
    Frame rate                  : 31.250 FPS (1536 SPF)
    Compression mode            : Lossy
    Stream size                 : 116 MiB (4%)
    Language                    : English
    Service kind                : Complete Main
    Default                     : No
    Forced                      : No

    Text
    ID                          : 4
    Format                      : UTF-8
    Codec ID                    : S_TEXT/UTF8
    Codec ID/Info               : UTF-8 Plain Text
    Duration                    : 45 min 47 s
    Bit rate                    : 98 b/s
    Frame rate                  : 0.330 FPS
    Count of elements           : 907
    Stream size                 : 33.0 KiB (0%)
    Language                    : Spanish
    Default                     : No
    Forced                      : No

     

  • Peso: 3.18 GiB

Sinopsis

Después de descubrir que un profesor de la escuela tiene una página de la red social OnlyFans, Randy se ve obligado a echar un vistazo al lado oculto del mundo de los influencers digitales.

 

Latino: E-AC3 2.0  –  Ingles: E-AC3 5.1

Ficha técnica

Video trailer de la película

Enlaces de descarga

Rip de Bluray

Descargar South Park (Not Suitable for Children) (2023) WEB-DL 4K SDR Latino – CMHDD




Aportes de DPeliculasHDmega la pass es:dpeliculashdmega.org Aportes de CinemaniaHD la pass es:cinemaniahdd.com Aportes recientes:cinemaniahdd.net

Películas relacionadas

  • La La Land (2016) REMUX 1080p Latino – CMHDD

    La La Land (2016) REMUX 1080p Latino – CMHDD

    2016
    La La Land (2016) REMUX 1080p Latino – CMHDD

    2h 8m 2016

    Mia (Emma Stone), una joven aspirante a actriz que trabaja como camarera mientras acude a castings, y...

    Director: Peter Kohn

    Género: Comedia

    Actores: Zoë Hall

  • La La Land (2016) REMUX 4K HDR Latino – CMHDD

    La La Land (2016) REMUX 4K HDR Latino – CMHDD

    2016
    La La Land (2016) REMUX 4K HDR Latino – CMHDD

    2h 8m 2016

    Mia, una joven aspirante a actriz que compagina los castings con su trabajo de camarera, y Sebastian,...

    Director: Peter Kohn

    Género: Comedia

    Actores: Zoë Hall

  • Loco Por Ella (2010) Full HD 1080p Latino-CMHDD

    Loco Por Ella (2010) Full HD 1080p Latino-CMHDD

    2010
    Loco Por Ella (2010) Full HD 1080p Latino-CMHDD

    1 h 41 min 2010

    Descargar Loco Por Ella (2010) REMUX 1080p Latino-CMHDD. Cuando Kassie (Jennifer Aniston) cumple los...

    Director: Will Speck

    Género: Actualizadas

    Actores: Will Swenson

  • Loco Por Ella (2010) REMUX 1080p Latino-CMHDD

    Loco Por Ella (2010) REMUX 1080p Latino-CMHDD

    2010
    Loco Por Ella (2010) REMUX 1080p Latino-CMHDD

    1h 39m 2010

    Descargar Loco Por Ella (2010) REMUX 1080p Latino-CMHDD. Cuando Kassie (Jennifer Aniston) cumple los...

    Director: Will Speck

    Género: Comedia

    Actores: Will Swenson

descargar South Park (Not Suitable for Children) (2023) WEB-DL 4K SDR Latino – CMHDD 4K UHD 1080p gratis, South Park (Not Suitable for Children) (2023) WEB-DL 4K SDR Latino – CMHDD 4K UHD mega 1 link, South Park (Not Suitable for Children) (2023) WEB-DL 4K SDR Latino – CMHDD 4K UHD pelicula completa, descargar South Park (Not Suitable for Children) (2023) WEB-DL 4K SDR Latino – CMHDD 4K UHD gratis en mega.

South Park (Not Suitable for Children) (2023) WEB-DL 4K SDR Latino – CMHDD pelicula full hd, South Park (Not Suitable for Children) (2023) WEB-DL 4K SDR Latino – CMHDD mega latino, South Park (Not Suitable for Children) (2023) WEB-DL 4K SDR Latino – CMHDD 4k latino, South Park (Not Suitable for Children) (2023) WEB-DL 4K SDR Latino – CMHDD pelicula completa, South Park (Not Suitable for Children) (2023) WEB-DL 4K SDR Latino – CMHDD descargar gratis, descargar South Park (Not Suitable for Children) (2023) WEB-DL 4K SDR Latino – CMHDD pelicula latino, South Park (Not Suitable for Children) (2023) WEB-DL 4K SDR Latino – CMHDD 1 link mega, South Park (Not Suitable for Children) (2023) WEB-DL 4K SDR Latino – CMHDD 1 link google drive, South Park (Not Suitable for Children) (2023) WEB-DL 4K SDR Latino – CMHDD hd 1080p latino.
Comentarios 0