×

¿Problemas para descargar con Mozilla, EDGE? Deshabilita la opción "Abrir vinculos en una pestaña nueva" tal como lo muestra ésta imagen.

Source Code (2011) REMUX 4K HDR Latino – CMHDD

206 vistas

Información de Source Code (2011) REMUX 4K HDR Latino – CMHDD

Datos de la película

  • Calidad: 4K HDR
  • Audio: Se especifica abajo de la Sinopsis
  • Subtitulos: Español Latino PGS
  • Resolución: 3840x2160p
  • Formato: MKV
  • Codec: H.264
  • Encoder: Dracarys
  • Mediainfo: Clic para Mostrar Datos Ver
  • Format                      : Matroska
    Format version              : Version 4
    File size                   : 42.9 GiB
    Duration                    : 1 h 33 min
    Overall bit rate mode       : Variable
    Overall bit rate            : 65.9 Mb/s
    Movie name                  : Source Code (2011) REMUX 4K HDR Latino - CMHDD
    Encoded date                : UTC 2021-09-17 19:13:04
    Writing application         : mkvmerge v17.0.0 ('Be Ur Friend') 64-bit
    Writing library             : libebml v1.3.5 + libmatroska v1.4.8

    Video
    ID                          : 1
    Format                      : HEVC
    Format/Info                 : High Efficiency Video Coding
    Format profile              : Main 10@L5.1@High
    HDR format                  : SMPTE ST 2086, HDR10 compatible
    Codec ID                    : V_MPEGH/ISO/HEVC
    Duration                    : 1 h 33 min
    Bit rate                    : 60.3 Mb/s
    Width                       : 3 840 pixels
    Height                      : 2 160 pixels
    Display aspect ratio        : 16:9
    Frame rate mode             : Constant
    Frame rate                  : 23.976 (24000/1001) FPS
    Color space                 : YUV
    Chroma subsampling          : 4:2:0 (Type 2)
    Bit depth                   : 10 bits
    Bits/(Pixel*Frame)          : 0.303
    Stream size                 : 39.2 GiB (91%)
    Default                     : Yes
    Forced                      : No
    Color range                 : Limited
    Color primaries             : BT.2020
    Transfer characteristics    : PQ
    Matrix coefficients         : BT.2020 non-constant
    Mastering display color pri : Display P3
    Mastering display luminance : min: 0.0020 cd/m2, max: 1000 cd/m2
    Maximum Content Light Level : 1000 cd/m2
    Maximum Frame-Average Light : 848 cd/m2

    Audio #1
    ID                          : 2
    Format                      : MLP FBA 16-ch
    Format/Info                 : Meridian Lossless Packing FBA with 16-channel presentation
    Commercial name             : Dolby TrueHD with Dolby Atmos
    Codec ID                    : A_TRUEHD
    Duration                    : 1 h 33 min
    Bit rate mode               : Variable
    Bit rate                    : 4 673 kb/s
    Maximum bit rate            : 8 805 kb/s
    Channel(s)                  : 8 channels
    Channel layout              : L R C LFE Ls Rs Lb Rb
    Sampling rate               : 48.0 kHz
    Frame rate                  : 1 200.000 FPS (40 SPF)
    Compression mode            : Lossless
    Delay relative to video     : 1 ms
    Stream size                 : 3.04 GiB (7%)
    Language                    : English
    Default                     : No
    Forced                      : No
    Number of dynamic objects   : 15
    Bed channel count           : 1 channel
    Bed channel configuration   : LFE

    Audio #2
    ID                          : 3
    Format                      : AC-3
    Format/Info                 : Audio Coding 3
    Commercial name             : Dolby Digital
    Format settings             : Dolby Surround EX
    Codec ID                    : A_AC3
    Duration                    : 1 h 33 min
    Bit rate mode               : Constant
    Bit rate                    : 448 kb/s
    Channel(s)                  : 6 channels
    Channel layout              : L R C LFE Ls Rs
    Sampling rate               : 48.0 kHz
    Frame rate                  : 31.250 FPS (1536 SPF)
    Compression mode            : Lossy
    Delay relative to video     : 1 ms
    Stream size                 : 299 MiB (1%)
    Language                    : English
    Service kind                : Complete Main
    Default                     : No
    Forced                      : No

    Audio #3
    ID                          : 4
    Format                      : AC-3
    Format/Info                 : Audio Coding 3
    Commercial name             : Dolby Digital
    Codec ID                    : A_AC3
    Duration                    : 1 h 33 min
    Bit rate mode               : Constant
    Bit rate                    : 448 kb/s
    Channel(s)                  : 6 channels
    Channel layout              : L R C LFE Ls Rs
    Sampling rate               : 48.0 kHz
    Frame rate                  : 31.250 FPS (1536 SPF)
    Compression mode            : Lossy
    Delay relative to video     : 23 ms
    Stream size                 : 298 MiB (1%)
    Language                    : Spanish
    Service kind                : Complete Main
    Default                     : Yes
    Forced                      : No

    Text
    ID                          : 5
    Format                      : PGS
    Muxing mode                 : zlib
    Codec ID                    : S_HDMV/PGS
    Codec ID/Info               : Picture based subtitle format used on BDs/HD-DVDs
    Duration                    : 1 h 24 min
    Bit rate                    : 38.6 kb/s
    Count of elements           : 2298
    Stream size                 : 23.3 MiB (0%)
    Language                    : Spanish
    Default                     : No
    Forced                      : No

    Menu
    00:00:00.000                : en:Chapter 1
    00:06:52.412                : en:Chapter 2
    00:11:03.079                : en:Chapter 3
    00:17:19.997                : en:Chapter 4
    00:21:05.681                : en:Chapter 5
    00:28:36.756                : en:Chapter 6
    00:31:50.366                : en:Chapter 7
    00:36:19.886                : en:Chapter 8
    00:41:34.700                : en:Chapter 9
    00:47:21.839                : en:Chapter 10
    00:52:30.814                : en:Chapter 11
    00:54:32.686                : en:Chapter 12
    00:58:01.227                : en:Chapter 13
    01:03:02.278                : en:Chapter 14
    01:09:40.009                : en:Chapter 15
    01:15:12.049                : en:Chapter 16
    01:21:49.654                : en:Chapter 17
    01:24:41.117                : en:Chapter 18

  • Peso: 42.9 GiB

Sinopsis

El capitán Colter Stevens (Jake Gyllenhaal) se despierta de un sobresalto en el interior de un tren de cercanías de Chicago. Aunque todos los demás pasajeros parecen conocerlo él no tiene absolutamente ninguna idea de dónde está o, incluso, de quién es. Lo último que recuerda es estar volando en helicóptero durante una misión en Irak, pero aquí parece ser alguien que va a trabajar por la mañana como un día cualquiera. Pero antes de que puede hacer cualquier cosa un tren se acerca por la vía contraria y explota una bomba que aparentemente mata a Colter y a todos los demás pasajeros.

 

Latino: AC3 5.1  –  Ingles: TrueHD 7.1 + AC3 5.1

Ficha técnica

Video trailer de la película

Enlaces de descarga

Rip de Bluray

Descargar Source Code (2011) REMUX 4K HDR Latino – CMHDD


Aportes de DPeliculasHDmega la pass es:dpeliculashdmega.org Aportes de CinemaniaHD la pass es:cinemaniahdd.com

Películas relacionadas

descargar Source Code (2011) REMUX 4K HDR Latino – CMHDD 4K HDR 1080p gratis, Source Code (2011) REMUX 4K HDR Latino – CMHDD 4K HDR mega 1 link, Source Code (2011) REMUX 4K HDR Latino – CMHDD 4K HDR pelicula completa, descargar Source Code (2011) REMUX 4K HDR Latino – CMHDD 4K HDR gratis en mega.

Source Code (2011) REMUX 4K HDR Latino – CMHDD pelicula full hd, Source Code (2011) REMUX 4K HDR Latino – CMHDD mega latino, Source Code (2011) REMUX 4K HDR Latino – CMHDD 4k latino, Source Code (2011) REMUX 4K HDR Latino – CMHDD pelicula completa, Source Code (2011) REMUX 4K HDR Latino – CMHDD descargar gratis, descargar Source Code (2011) REMUX 4K HDR Latino – CMHDD pelicula latino, Source Code (2011) REMUX 4K HDR Latino – CMHDD 1 link mega, Source Code (2011) REMUX 4K HDR Latino – CMHDD 1 link google drive, Source Code (2011) REMUX 4K HDR Latino – CMHDD hd 1080p latino.