×

¿Problemas para descargar con Mozilla, EDGE? Deshabilita la opción "Abrir vinculos en una pestaña nueva" tal como lo muestra ésta imagen.

Soulmates (2020) Temporada 1 AMZN WEB-DL 1080p Latino

284 vistas

Información de Soulmates (2020) Temporada 1 AMZN WEB-DL 1080p Latino

Datos de la película

  • Calidad: WEBDL
  • Audio: Español Latino E-AC3 5.1 AMAZON - Ingles E-AC3 5.1 AMAZON
  • Subtitulos: Español Latino SRT- FORZADOS SRT
  • Resolución: 1920x1080
  • Formato: MKV
  • Codec: H.264
  • Encoder: cinemaniahdd
  • Mediainfo: Clic para Mostrar Datos Ver
  • Soulmates T01E06 AMZN WEB-DL 1080p Latino [CNMNHDD].mkv
    Format                      : Matroska
    Format version              : Version 4
    File size                   : 3.50 GiB
    Duration                    : 51 min 53 s
    Overall bit rate            : 9 651 kb/s
    Movie name                  : Soulmates T01E06 - CinemaniaHDD.Net
    Encoded date                : UTC 2021-02-09 23:49:36
    Writing application         : mkvmerge v51.0.0 ('I Wish') 64-bit
    Writing library             : libebml v1.4.0 + libmatroska v1.6.2

    Video
    ID                          : 1
    Format                      : AVC
    Format/Info                 : Advanced Video Codec
    Format profile              : High@L4
    Format settings             : CABAC / 4 Ref Frames
    Format settings, CABAC      : Yes
    Format settings, Reference  : 4 frames
    Codec ID                    : V_MPEG4/ISO/AVC
    Duration                    : 51 min 53 s
    Bit rate mode               : Constant
    Bit rate                    : 8 369 kb/s
    Nominal bit rate            : 10 000 kb/s
    Width                       : 1 920 pixels
    Height                      : 1 080 pixels
    Display aspect ratio        : 16:9
    Frame rate mode             : Constant
    Frame rate                  : 24.000 FPS
    Color space                 : YUV
    Chroma subsampling          : 4:2:0
    Bit depth                   : 8 bits
    Scan type                   : Progressive
    Bits/(Pixel*Frame)          : 0.168
    Stream size                 : 3.03 GiB (87%)
    Title                       : CinemaniaHDD
    Default                     : Yes
    Forced                      : No
    Color range                 : Limited
    Color primaries             : BT.709
    Transfer characteristics    : BT.709
    Matrix coefficients         : BT.709

    Audio #1
    ID                          : 2
    Format                      : E-AC-3
    Format/Info                 : Enhanced AC-3
    Commercial name             : Dolby Digital Plus
    Codec ID                    : A_EAC3
    Duration                    : 51 min 53 s
    Bit rate mode               : Constant
    Bit rate                    : 640 kb/s
    Channel(s)                  : 6 channels
    Channel layout              : L R C LFE Ls Rs
    Sampling rate               : 48.0 kHz
    Frame rate                  : 31.250 FPS (1536 SPF)
    Compression mode            : Lossy
    Stream size                 : 238 MiB (7%)
    Title                       : Español latino [CinemaniaHDD]
    Language                    : Spanish
    Service kind                : Complete Main
    Default                     : Yes
    Forced                      : No

    Audio #2
    ID                          : 3
    Format                      : E-AC-3
    Format/Info                 : Enhanced AC-3
    Commercial name             : Dolby Digital Plus
    Codec ID                    : A_EAC3
    Duration                    : 51 min 53 s
    Bit rate mode               : Constant
    Bit rate                    : 640 kb/s
    Channel(s)                  : 6 channels
    Channel layout              : L R C LFE Ls Rs
    Sampling rate               : 48.0 kHz
    Frame rate                  : 31.250 FPS (1536 SPF)
    Compression mode            : Lossy
    Stream size                 : 238 MiB (7%)
    Title                       : Inglés [CinemaniaHDD]
    Language                    : English
    Service kind                : Complete Main
    Default                     : No
    Forced                      : No

    Text #1
    ID                          : 4
    Format                      : UTF-8
    Codec ID                    : S_TEXT/UTF8
    Codec ID/Info               : UTF-8 Plain Text
    Duration                    : 43 min 15 s
    Bit rate                    : 1 b/s
    Count of elements           : 18
    Stream size                 : 420 Bytes (0%)
    Title                       : Forzados [CinemaniaHDD]
    Language                    : Spanish
    Default                     : Yes
    Forced                      : Yes

    Text #2
    ID                          : 5
    Format                      : UTF-8
    Codec ID                    : S_TEXT/UTF8
    Codec ID/Info               : UTF-8 Plain Text
    Duration                    : 50 min 53 s
    Bit rate                    : 35 b/s
    Count of elements           : 470
    Stream size                 : 13.3 KiB (0%)
    Title                       : Español latino [CinemaniaHDD]
    Language                    : Spanish
    Default                     : No
    Forced                      : No

    Text #3
    ID                          : 6
    Format                      : UTF-8
    Codec ID                    : S_TEXT/UTF8
    Codec ID/Info               : UTF-8 Plain Text
    Duration                    : 50 min 56 s
    Bit rate                    : 35 b/s
    Count of elements           : 495
    Stream size                 : 13.2 KiB (0%)
    Title                       : Inglés [CC] [CinemaniaHDD]
    Language                    : English
    Default                     : No
    Forced                      : No

    Menu
    00:00:00.000                : en:First date
    00:01:24.000                : en:6 months earlier
    00:02:19.000                : en:Uncomfortable bus ride
    00:05:40.000                : en:Caitlin gets home
    00:07:56.000                : en:The day has arrived
    00:09:34.000                : en:Caitlin looks for Nathan
    00:13:55.000                : en:Listen to the voice
    00:15:33.000                : en:Surprise guest at work
    00:17:19.000                : en:Caitlin is at a coffee shop
    00:18:19.000                : en:Caitlin faces her fears
    00:21:26.000                : en:Caitlin waits for his reply
    00:23:58.000                : en:Nightmare
    00:26:03.000                : en:Caitlin feels fear
    00:30:29.000                : en:Nira comforts Caitlin
    00:32:45.000                : en:Caitlin comes to Police Station
    00:34:10.000                : en:flashback
    00:36:36.000                : en:Three months later
    00:38:58.000                : en:Doug is boring
    00:39:26.000                : en:Dangerous thoughts
    00:41:04.000                : en:Childhood book
    00:43:15.000                : en:Hallucinations
    00:43:57.000                : en:Caitlin looks for Doug
    00:46:10.000                : en:A fatal attraction
    00:51:24.000                : en:End Credits

     

  • Peso: 3.50 GiB Aprox ---- 16 GiB in 6 Chapters.

Sinopsis

La prueba del alma gemela impacta a seis personajes: Nikki duda de su matrimonio, David tiene un romance, Libby ama a su alma gemela y a su marido, Mateo tiene una aventura salvaje, el alma gemela de Kurt está muerta, Caitlin se cuestiona si su alma gemela es buena para ella.

Ficha técnica

Video trailer de la película

Enlaces de descarga

Rip de Bluray

Descargar Soulmates (2020) Temporada 1 AMZN WEB-DL 1080p Latino




Aportes de DPeliculasHDmega la pass es:dpeliculashdmega.org Aportes de CinemaniaHD la pass es:cinemaniahdd.com
Guardado en : Crimen , Sci-Fi & Fantasy , Series

Películas relacionadas

descargar Soulmates (2020) Temporada 1 AMZN WEB-DL 1080p Latino WEBDL 1080p gratis, Soulmates (2020) Temporada 1 AMZN WEB-DL 1080p Latino WEBDL mega 1 link, Soulmates (2020) Temporada 1 AMZN WEB-DL 1080p Latino WEBDL serie completa, descargar Soulmates (2020) Temporada 1 AMZN WEB-DL 1080p Latino WEBDL gratis en mega.

Soulmates (2020) Temporada 1 AMZN WEB-DL 1080p Latino pelicula full hd, Soulmates (2020) Temporada 1 AMZN WEB-DL 1080p Latino mega latino, Soulmates (2020) Temporada 1 AMZN WEB-DL 1080p Latino 4k latino, Soulmates (2020) Temporada 1 AMZN WEB-DL 1080p Latino pelicula completa, Soulmates (2020) Temporada 1 AMZN WEB-DL 1080p Latino descargar gratis, descargar Soulmates (2020) Temporada 1 AMZN WEB-DL 1080p Latino pelicula latino, Soulmates (2020) Temporada 1 AMZN WEB-DL 1080p Latino 1 link mega, Soulmates (2020) Temporada 1 AMZN WEB-DL 1080p Latino 1 link google drive, Soulmates (2020) Temporada 1 AMZN WEB-DL 1080p Latino hd 1080p latino.
Comentarios 0