×

¿Problemas para descargar con Mozilla, EDGE? Deshabilita la opción "Abrir vinculos en una pestaña nueva" tal como lo muestra ésta imagen.

Soul (2020) PLACEBO Full HD 1080p Latino

461 vistas

Información de Soul (2020) PLACEBO Full HD 1080p Latino

Datos de la película

  • Calidad: Full 1080p
  • Audio: Se especifica abajo de la Sinopsis
  • Subtitulos: Español Latino PGS - Ingles PGS
  • Resolución: 1920x1080p
  • Formato: MKV
  • Codec: H.264
  • Encoder: Melkor
  • Mediainfo: Clic para Mostrar Datos Ver
  • Soul (2020) PLACEBO 1080p Latino.mkv
    Format                      : Matroska
    Format version              : Version 4
    File size                   : 5.57 GiB
    Duration                    : 1 h 40 min
    Overall bit rate            : 7 931 kb/s
    Movie name                  : Soul (2020) CinemaniaHDD.Net
    Encoded date                : UTC 2021-03-20 19:12:58
    Writing application         : mkvmerge v51.0.0 ('I Wish') 64-bit
    Writing library             : libebml v1.4.0 + libmatroska v1.6.2
    Attachments                 : CINEMANIAHD.png

    Video
    ID                          : 1
    Format                      : AVC
    Format/Info                 : Advanced Video Codec
    Format profile              : High@L4.1
    Format settings             : CABAC / 4 Ref Frames
    Format settings, CABAC      : Yes
    Format settings, Reference  : 4 frames
    Codec ID                    : V_MPEG4/ISO/AVC
    Duration                    : 1 h 40 min
    Bit rate                    : 4 726 kb/s
    Width                       : 1 920 pixels
    Height                      : 1 080 pixels
    Display aspect ratio        : 16:9
    Frame rate mode             : Constant
    Frame rate                  : 23.976 (24000/1001) FPS
    Color space                 : YUV
    Chroma subsampling          : 4:2:0
    Bit depth                   : 8 bits
    Scan type                   : Progressive
    Bits/(Pixel*Frame)          : 0.095
    Stream size                 : 3.32 GiB (60%)
    Title                       : Full HD1080p [CinemaniaHDD]
    Writing library             : x264 core 157 r2935 545de2f
    Encoding settings           : cabac=1 / ref=4 / deblock=1:0:0 / analyse=0x3:0x133 / me=tesa / subme=11 / psy=1 / psy_rd=1.00:0.00 / mixed_ref=1 / me_range=24 / chroma_me=1 / trellis=2 / 8x8dct=1 / cqm=0 / deadzone=21,11 / fast_pskip=0 / chroma_qp_offset=-2 / threads=24 / lookahead_threads=6 / sliced_threads=0 / nr=0 / decimate=1 / interlaced=0 / bluray_compat=0 / constrained_intra=0 / bframes=16 / b_pyramid=2 / b_adapt=2 / b_bias=0 / direct=3 / weightb=1 / open_gop=0 / weightp=2 / keyint=240 / keyint_min=24 / scenecut=40 / intra_refresh=0 / rc_lookahead=60 / rc=crf / mbtree=1 / crf=18.0 / qcomp=0.60 / qpmin=0 / qpmax=69 / qpstep=4 / vbv_maxrate=62500 / vbv_bufsize=78125 / crf_max=0.0 / nal_hrd=none / filler=0 / ip_ratio=1.40 / aq=1:1.00
    Default                     : Yes
    Forced                      : Yes
    Color range                 : Limited
    Color primaries             : BT.709
    Transfer characteristics    : BT.709
    Matrix coefficients         : BT.709

    Audio #1
    ID                          : 2
    Format                      : E-AC-3
    Format/Info                 : Enhanced AC-3
    Commercial name             : Dolby Digital Plus
    Format profile              : Blu-ray Disc
    Codec ID                    : A_EAC3
    Duration                    : 1 h 40 min
    Bit rate mode               : Constant
    Bit rate                    : 1 024 kb/s
    Channel(s)                  : 8 channels
    Channel layout              : L R C LFE Ls Rs Lb Rb
    Sampling rate               : 48.0 kHz
    Frame rate                  : 31.250 FPS (1536 SPF)
    Compression mode            : Lossy
    Stream size                 : 736 MiB (13%)
    Title                       : Español Latino EAC3 [CinemaniaHDD]
    Language                    : Spanish
    Service kind                : Complete Main
    Default                     : Yes
    Forced                      : Yes

    Audio #2
    ID                          : 3
    Format                      : DTS
    Format/Info                 : Digital Theater Systems
    Codec ID                    : A_DTS
    Duration                    : 1 h 40 min
    Bit rate mode               : Constant
    Bit rate                    : 1 509 kb/s
    Channel(s)                  : 6 channels
    Channel layout              : C L R Ls Rs LFE
    Sampling rate               : 48.0 kHz
    Frame rate                  : 93.750 FPS (512 SPF)
    Bit depth                   : 24 bits
    Compression mode            : Lossy
    Stream size                 : 1.06 GiB (19%)
    Title                       : Ingles [CinemaniaHDD]
    Language                    : English
    Default                     : No
    Forced                      : No

    Audio #3
    ID                          : 4
    Format                      : AC-3
    Format/Info                 : Audio Coding 3
    Commercial name             : Dolby Digital
    Codec ID                    : A_AC3
    Duration                    : 1 h 40 min
    Bit rate mode               : Constant
    Bit rate                    : 640 kb/s
    Channel(s)                  : 6 channels
    Channel layout              : L R C LFE Ls Rs
    Sampling rate               : 48.0 kHz
    Frame rate                  : 31.250 FPS (1536 SPF)
    Compression mode            : Lossy
    Stream size                 : 460 MiB (8%)
    Title                       : Español Latino AC3 [CinemaniaHDD]
    Language                    : Spanish
    Service kind                : Complete Main
    Default                     : No
    Forced                      : No

    Text #1
    ID                          : 5
    Format                      : PGS
    Muxing mode                 : zlib
    Codec ID                    : S_HDMV/PGS
    Codec ID/Info               : Picture based subtitle format used on BDs/HD-DVDs
    Duration                    : 1 h 39 min
    Bit rate                    : 40.7 kb/s
    Count of elements           : 2688
    Stream size                 : 29.1 MiB (1%)
    Title                       : Español-PGS [CinemaniaHDD]
    Language                    : Spanish
    Default                     : No
    Forced                      : No

    Text #2
    ID                          : 6
    Format                      : PGS
    Muxing mode                 : zlib
    Codec ID                    : S_HDMV/PGS
    Codec ID/Info               : Picture based subtitle format used on BDs/HD-DVDs
    Duration                    : 1 h 40 min
    Bit rate                    : 51.9 kb/s
    Count of elements           : 3716
    Stream size                 : 37.3 MiB (1%)
    Title                       : Ingles-PGS [CinemaniaHDD]
    Language                    : Spanish
    Default                     : No
    Forced                      : No

    Text #3
    ID                          : 7
    Format                      : UTF-8
    Codec ID                    : S_TEXT/UTF8
    Codec ID/Info               : UTF-8 Plain Text
    Duration                    : 2 s 44 ms
    Bit rate                    : 187 b/s
    Count of elements           : 1
    Stream size                 : 48.0 Bytes (0%)
    Title                       : Forzados-SRT [CinemaniaHDD]
    Language                    : Spanish
    Default                     : Yes
    Forced                      : Yes

    Text #4
    ID                          : 8
    Format                      : UTF-8
    Codec ID                    : S_TEXT/UTF8
    Codec ID/Info               : UTF-8 Plain Text
    Duration                    : 1 h 39 min
    Bit rate                    : 66 b/s
    Count of elements           : 1321
    Stream size                 : 48.9 KiB (0%)
    Title                       : Español-SRT [CinemaniaHDD]
    Language                    : Spanish
    Default                     : No
    Forced                      : No

    Menu
    00:00:00.000                : en:Chapter 01
    00:03:32.337                : en:Chapter 02
    00:04:57.923                : en:Chapter 03
    00:08:43.189                : en:Chapter 04
    00:09:18.892                : en:Chapter 05
    00:11:49.334                : en:Chapter 06
    00:12:29.457                : en:Chapter 07
    00:15:03.569                : en:Chapter 08
    00:17:12.031                : en:Chapter 09
    00:18:24.687                : en:Chapter 10
    00:19:53.984                : en:Chapter 11
    00:21:29.663                : en:Chapter 12
    00:26:00.058                : en:Chapter 13
    00:29:47.786                : en:Chapter 14
    00:36:07.916                : en:Chapter 15
    00:38:22.383                : en:Chapter 16
    00:39:53.307                : en:Chapter 17
    00:41:55.805                : en:Chapter 18
    00:43:43.621                : en:Chapter 19
    00:44:29.166                : en:Chapter 20
    00:46:06.263                : en:Chapter 21
    00:49:38.183                : en:Chapter 22
    00:50:40.537                : en:Chapter 23
    00:51:28.126                : en:Chapter 24
    00:55:31.328                : en:Chapter 25
    00:56:59.791                : en:Chapter 26
    00:58:34.094                : en:Chapter 27
    01:00:31.794                : en:Chapter 28
    01:04:48.551                : en:Chapter 29
    01:07:53.361                : en:Chapter 30
    01:09:15.484                : en:Chapter 31
    01:12:33.974                : en:Chapter 32
    01:15:32.361                : en:Chapter 33
    01:17:23.639                : en:Chapter 34
    01:21:15.453                : en:Chapter 35
    01:22:57.806                : en:Chapter 36
    01:26:43.323                : en:Chapter 37
    01:28:32.306                : en:Chapter 38
    01:30:13.574                : en:Chapter 39

  • Peso: 5.57 GiB

Sinopsis

Descargar Soul (2020) PLACEBO Full HD 1080p Latino. ¿Qué te hace diferente? Joe Gardner es un profesor de Música de una escuela secundaria que logra la oportunidad de su vida: tocar en el mejor club de jazz de la ciudad. Pero un pequeño traspié lo lleva de las calles de Nueva York a El Gran Antes, un lugar fantástico donde las nuevas almas reciben la personalidad, el carácter y los intereses antes de ir a la Tierra.

Español Latino EAC3 7.1 BD4K – Español Latino AC3 5.1 Bluray – Ingles DTS 5.1 Bluray

Nota: Textos En Español 😀

Ficha técnica

Video trailer de la película

Enlaces de descarga

Rip de Bluray

Descargar Soul (2020) PLACEBO Full HD 1080p Latino




Aportes de DPeliculasHDmega la pass es:dpeliculashdmega.org Aportes de CinemaniaHD la pass es:cinemaniahdd.com

Películas relacionadas

  • Stromboli (2022) NF WEB-DL 1080p Latino

    Stromboli (2022) NF WEB-DL 1080p Latino

    2022
    Stromboli (2022) NF WEB-DL 1080p Latino

    1h 26m 2022

    Descargar Stromboli (2022) NF WEB-DL 1080p Latino. Sara, una mujer que se ha divorciado recientemente,...

    Director: Michiel van Erp

    Género: Drama

    Actores: Tim McInnerny

  • Infiesto (2023) NF WEB-DL 1080p Castellano

    Infiesto (2023) NF WEB-DL 1080p Castellano

    2023
    Infiesto (2023) NF WEB-DL 1080p Castellano

    1h 36m 2023

    Descargar Infiesto (2023) NF WEB-DL 1080p Castellano. Mientras el coronavirus trastoca sus vidas, dos...

    Director: Patxi Amezcua

    Género: Crimen

    Actores: Luis Zahera

  • Espiritu Libre (2023) NF WEB-DL 1080p Latino

    Espiritu Libre (2023) NF WEB-DL 1080p Latino

    2023
    Espiritu Libre (2023) NF WEB-DL 1080p Latino

    1h 49m 2023

    Descargar Espiritu Libre (2023) NF WEB-DL 1080p Latino. La película se basa en la increíble historia...

    Director: Sarah Spillane

    Género: Aventura

    Actores: Vivien Turner

  • Un mundo extraño (2022) HD BDRip 1080p Latino

    Un mundo extraño (2022) HD BDRip 1080p Latino

    2022
    Un mundo extraño (2022) HD BDRip 1080p Latino

    1h 42m 2022

    Descargar Un mundo extraño (2022) HD BDRip 1080p Latino. Los Clades son una familia conocida en todo...

    Director: Thai Bettistea

    Género: Animación

    Actores: Reed Buck

descargar Soul (2020) PLACEBO Full HD 1080p Latino Full 1080p 1080p gratis, Soul (2020) PLACEBO Full HD 1080p Latino Full 1080p mega 1 link, Soul (2020) PLACEBO Full HD 1080p Latino Full 1080p pelicula completa, descargar Soul (2020) PLACEBO Full HD 1080p Latino Full 1080p gratis en mega.

Soul (2020) PLACEBO Full HD 1080p Latino pelicula full hd, Soul (2020) PLACEBO Full HD 1080p Latino mega latino, Soul (2020) PLACEBO Full HD 1080p Latino 4k latino, Soul (2020) PLACEBO Full HD 1080p Latino pelicula completa, Soul (2020) PLACEBO Full HD 1080p Latino descargar gratis, descargar Soul (2020) PLACEBO Full HD 1080p Latino pelicula latino, Soul (2020) PLACEBO Full HD 1080p Latino 1 link mega, Soul (2020) PLACEBO Full HD 1080p Latino 1 link google drive, Soul (2020) PLACEBO Full HD 1080p Latino hd 1080p latino.
Comentarios 0